.
Авторизация | Регистрация
Хочешь лучшие торренты? Добавь свой email!
Добавить
» » Голый пистолет 2 1 / 2: Запах страха / The Naked Gun 2 1 / 2: The Smell of Fear (1991) BDRip от msltel скачать через торрент бесплатно




    Голый пистолет 2 1 / 2: Запах страха / The Naked Gun 2 1 / 2: The Smell of Fear (1991) BDRip от msltel скачать через торрент бесплатно

    Опубликовал: Админ | Дата: 27-02-2015, 11:09 | Просмотров: 364



    Название: Голый пистолет 2 1/2: Запах страха
    Оригинальное название: The Naked Gun 2: The Smell of Fear
    Год выпуска: 1991
    Жанр: Боевик, комедия, криминал
    Выпущено: США, Paramount Pictures
    Режиссер: Дэвид Цукер
    В ролях: Лесли Нильсен, Присцилла Пресли, Джордж Кеннеди, Робер Гуле, Ричард Гриффитс, Жаклин Брукс, Энтони Джеймс, Ллойд Бокнер, Тим О’Коннор, Питер Марк Ричман, Эд Уильямс, Джон Рорк, Марджери Росс, Питер Ван Норден, Гэйл Нили, Коллин Фицпатрик, Сэлли Розенблатт, Александр Фолк, Ларри МакКормик, Клифф Бемис, Д.Д. Ховард, Уильям Вудсон, Билл Чемерка, Кристофер Дж. Кин, Кен Керман, Эл Фэнн, Том МакГриви, Джеймс Гилстрап, Вейрд Эл Янкович, Джина Мастроджакомо, Джефф Райт, Гокул, Джон Стивенс, Шарлотта Цукер, Дон Пагсли, Карлос Бетанкорт, Бернардо Маркез, Маргарито Мендоза, Ли Терри, Мэнни Перри, Алекс Зиммерман

    О фильме: Лейтенант полиции Фрэнк Дребин по-прежнему трудится на ниве поимки нарушителей правопорядка, параллельно ища ответы на вопросы глобального свойства, например: когда ему предстоит продемонстрировать всё, на что он способен. И вот наступает ответственный момент. Некий злодей плетёт страшные козни и замышляет уничтожить весь мир. Но не тут-то было. Храбрый полицейский, как всегда, начеку…

    Качество: BDRip
    Размер: 2.58 ГБ
    Продолжительность: 01:25:06

    Видео: XviD, 1898 Kбит/с, 720x400
    Аудио 1: русский, 48 kHz, AC3, 6 ch, 448 kbps avg, Профессиональный многоголосый
    Аудио 2: русский, 48 kHz, AC3, 2 ch, 192 kbps avg, Профессиональный многоголосый, НТВ

    Внешние файлы
    Аудио: русский, 48 kHz, AC3, 6 ch, 448 kbps avg, Профессиональный двухголосый, Инна Королёва и Пётр Гланц
    Аудио: русский, 48 kHz, AC3, 6 ch, 448 kbps avg, Авторский, Василий Горчаков
    Аудио: русский, 48 kHz, AC3, 6 ch, 448 kbps avg, Авторский, Алексей Михалёв
    Аудио: английский, 48 kHz, AC3, 6 ch, 448 kbps avg, Оригинал
    Субтитры: русские
    Субтитры: английские

    Сравнение с исходником



    MediaInfo
    Общее
    Полное имя : E:VideoGolyj.pistolet.2.1991.XviD.BDRipGolyj.pistolet.2.1991.AVO.rus.А.Михалёв.ac3
    Формат : AC-3
    Формат/Информация : Audio Coding 3
    Размер файла : 273 Мбайт
    Продолжительность : 1 ч. 25 м.
    Режим общего битрейта : Постоянный
    Общий поток : 448 Кбит/сек

    Аудио
    Формат : AC-3
    Формат/Информация : Audio Coding 3
    Расширение режима : CM (complete main)
    Параметр Endianness формата : Big
    Продолжительность : 1 ч. 25 м.
    Вид битрейта : Постоянный
    Битрейт : 448 Кбит/сек
    Каналы : 6 каналов
    Расположение каналов : Front: L C R, Side: L R, LFE
    Частота : 48,0 КГц
    Битовая глубина : 16 бит
    Метод сжатия : С потерями
    Размер потока : 273 Мбайт (100%)

    Общее
    Полное имя : E:VideoGolyj.pistolet.2.1991.XviD.BDRipGolyj.pistolet.2.1991.AVO.rus.В.Горчаков.ac3
    Формат : AC-3
    Формат/Информация : Audio Coding 3
    Размер файла : 273 Мбайт
    Продолжительность : 1 ч. 25 м.
    Режим общего битрейта : Постоянный
    Общий поток : 448 Кбит/сек

    Аудио
    Формат : AC-3
    Формат/Информация : Audio Coding 3
    Расширение режима : CM (complete main)
    Параметр Endianness формата : Big
    Продолжительность : 1 ч. 25 м.
    Вид битрейта : Постоянный
    Битрейт : 448 Кбит/сек
    Каналы : 6 каналов
    Расположение каналов : Front: L C R, Side: L R, LFE
    Частота : 48,0 КГц
    Битовая глубина : 16 бит
    Метод сжатия : С потерями
    Размер потока : 273 Мбайт (100%)

    Общее
    Полное имя : E:VideoGolyj.pistolet.2.1991.XviD.BDRipGolyj.pistolet.2.1991.DVO.rus.Гланц.ac3
    Формат : AC-3
    Формат/Информация : Audio Coding 3
    Размер файла : 273 Мбайт
    Продолжительность : 1 ч. 25 м.
    Режим общего битрейта : Постоянный
    Общий поток : 448 Кбит/сек

    Аудио
    Формат : AC-3
    Формат/Информация : Audio Coding 3
    Расширение режима : CM (complete main)
    Параметр Endianness формата : Big
    Продолжительность : 1 ч. 25 м.
    Вид битрейта : Постоянный
    Битрейт : 448 Кбит/сек
    Каналы : 6 каналов
    Расположение каналов : Front: L C R, Side: L R, LFE
    Частота : 48,0 КГц
    Битовая глубина : 16 бит
    Метод сжатия : С потерями
    Размер потока : 273 Мбайт (100%)

    Общее
    Полное имя : E:VideoGolyj.pistolet.2.1991.XviD.BDRipGolyj.pistolet.2.1991.eng.srt
    Размер файла : 142 Кбайт

    Общее
    Полное имя : E:VideoGolyj.pistolet.2.1991.XviD.BDRipGolyj.pistolet.2.1991.Original.eng.ac3
    Формат : AC-3
    Формат/Информация : Audio Coding 3
    Размер файла : 273 Мбайт
    Продолжительность : 1 ч. 25 м.
    Режим общего битрейта : Постоянный
    Общий поток : 448 Кбит/сек

    Аудио
    Формат : AC-3
    Формат/Информация : Audio Coding 3
    Расширение режима : CM (complete main)
    Параметр Endianness формата : Big
    Продолжительность : 1 ч. 25 м.
    Вид битрейта : Постоянный
    Битрейт : 448 Кбит/сек
    Каналы : 6 каналов
    Расположение каналов : Front: L C R, Side: L R, LFE
    Частота : 48,0 КГц
    Битовая глубина : 16 бит
    Метод сжатия : С потерями
    Размер потока : 273 Мбайт (100%)

    Общее
    Полное имя : E:VideoGolyj.pistolet.2.1991.XviD.BDRipGolyj.pistolet.2.1991.rus.srt
    Размер файла : 161 Кбайт

    Общее
    Полное имя : E:VideoGolyj.pistolet.2.1991.XviD.BDRipGolyj.pistolet.2.1991.XviD.BDRip.avi
    Формат : AVI
    Формат/Информация : Audio Video Interleave
    Размер файла : 1,52 Гбайт
    Продолжительность : 1 ч. 25 м.
    Общий поток : 2552 Кбит/сек
    Программа кодирования : VirtualDubMod 1.5.10.2 (build 2540/release)
    Библиотека кодирования : VirtualDubMod build 2540/release

    Видео
    Идентификатор : 0
    Формат : MPEG-4 Visual
    Профиль формата : Advanced Simple@L5
    Параметр BVOP формата : 1
    Параметр QPel формата : Нет
    Параметр GMC формата : Без точки перехода
    Параметр матрицы формата : Default (H.263)
    Режим смешивания : Сжатый битовый поток
    Идентификатор кодека : XVID
    Идентификатор кодека/Подсказка : XviD
    Продолжительность : 1 ч. 25 м.
    Битрейт : 1898 Кбит/сек
    Ширина : 720 пикселей
    Высота : 400 пикселей
    Соотношение сторон : 16:9
    Частота кадров : 23,976 кадра/сек
    Цветовое пространство : YUV
    Субдискретизация насыщенности : 4:2:0
    Битовая глубина : 8 бит
    Тип развёртки : Прогрессивная
    Метод сжатия : С потерями
    Бит/(Пиксели*Кадры) : 0.275
    Размер потока : 1,13 Гбайт (74%)
    Библиотека кодирования : XviD 1.2.1 (UTC 2008-12-04)

    Аудио #1
    Идентификатор : 1
    Формат : AC-3
    Формат/Информация : Audio Coding 3
    Расширение режима : CM (complete main)
    Параметр Endianness формата : Big
    Идентификатор кодека : 2000
    Продолжительность : 1 ч. 25 м.
    Вид битрейта : Постоянный
    Битрейт : 448 Кбит/сек
    Каналы : 6 каналов
    Расположение каналов : Front: L C R, Side: L R, LFE
    Частота : 48,0 КГц
    Битовая глубина : 16 бит
    Метод сжатия : С потерями
    Размер потока : 273 Мбайт (18%)
    Выравнивание : Разделение по промежуткам
    Продолжительность промежутка : 42 мс. (1,00 видеокадр)
    Время предзагрузки промежутка : 500 мс.

    Аудио #2
    Идентификатор : 2
    Формат : AC-3
    Формат/Информация : Audio Coding 3
    Расширение режима : CM (complete main)
    Параметр Endianness формата : Big
    Идентификатор кодека : 2000
    Продолжительность : 1 ч. 25 м.
    Вид битрейта : Постоянный
    Битрейт : 192 Кбит/сек
    Каналы : 2 канала
    Расположение каналов : Front: L R
    Частота : 48,0 КГц
    Битовая глубина : 16 бит
    Метод сжатия : С потерями
    Размер потока : 117 Мбайт (8%)
    Выравнивание : Разделение по промежуткам
    Продолжительность промежутка : 42 мс. (1,00 видеокадр)
    Время предзагрузки промежутка : 500 мс.
    Скриншоты





    Залил: msltel
    Размер: 2.58 GB (2773080756 Bytes)

    Голый пистолет 2 1/2: Запах страха / The Naked Gun 2 1/2: The Smell of Fear (1991) BDRip от msltel скачать через торрент бесплатно
    загрузка...
    Рейтинг →
     (голосов: 1, оценка 3/5, голосовать можно 1 раз )

    Другие торренты по теме:

  • Голый пистолет / The Naked Gun: From the Files of Police Squad! (1988) BDRip-AVC от olegek70 | P, P2, P1, A
  • Голый пистолет 33 1 / 3: Последний выпад / Naked Gun 33 1 / 3: The Final Insult (1994) HDTVRip-AVC от olegek70 | P, P2, A
  • Голый пистолет 2 1 / 2: запах страха / The Naked Gun 2 1 / 2: The Smell of Fear (1991) HDTVRip-AVC от olegek70 | P, P2, A
  • Голый пистолет / The Naked Gun: From the Files of Police Squad! (1988) BDRip 1080p от BT-Club
  • Голый пистолет 33 1 / 3: Последний выпад / Naked Gun 33 1 / 3: The Final Insult (1994) BDRip 720p от msltel скачать через торрент бесплатно
  • Голый пистолет 33 1 / 3: Последний выпад / Naked Gun 33 1 / 3: The Final Insult (1994) BDRip от msltel
  • Голый пистолет 2 1 / 2: Запах страха / The Naked Gun 2 1 / 2: The Smell of Fear (1991) BDRip 720p от msltel
  • Голый пистолет 2 1 / 2: Запах страха / The Naked Gun 2 1 / 2: The Smell of Fear (1991) BDRip 1080p от BT-Club скачать через торрент бесплатно


    • Комментарии (0):

      Информация

      Информация

        Посетители, находящиеся в группе Гости, не могут оставлять комментарии в данной новости.

        ↓ Меню



        ↓ Опрос

        А Вы добавили сайт в закладки?
        Да
        Не


        Top 10 за месяц (Фильмы)