.
Авторизация | Регистрация
Хочешь лучшие торренты? Добавь свой email!
Добавить
» » Кровавый четверг / Thursday (1998) BDRip 720p | P, P2, A скачать через торрент бесплатно




    Кровавый четверг / Thursday (1998) BDRip 720p | P, P2, A скачать через торрент бесплатно

    Опубликовал: Админ | Дата: 27-02-2015, 11:09 | Просмотров: 335



    Название: Кровавый четверг
    Оригинальное название: Thursday
    Год выпуска: 1998
    Жанр: Боевик, триллер, драма, криминал
    Выпущено: США, Polygram Filmed Entertainment, Propaganda Films
    Продолжительность: 01:27:48
    Перевод: Профессиональный многоголосый, профессиональный двухголосый, авторский
    Субтитры: Русские, английские

    Режиссер: Скип Вудс

    В ролях: Томас Джейн, Аарон Экхарт, Паулина Поризкова, Джеймс ЛеГро, Пола Маршалл, Майкл Джитер, Гленн Пламмер, Микки Рурк, Люк Хари, Бари К. Уиллерфорд, Ричард Вонг, Шоун Майкл Ховард, Гари Дурдан, Брайан Хукс, Джефф Сандерс, Майкл Д. Олмос, Юджин Колльер, Марджин Холден, Тони Колон, Сэм Хайона

    О фильме:
    Бывший торговец наркотиками, прошедший через все круги ада, решает выйти на пенсию и забыть о своем темном прошлом. Переехав из Лос-Анджелеса в Хьюстон, он резко меняет свой имидж, и в глазах окружающих становится обыкновенным гражданином, которого трудно заподозрить в чем-либо криминальном. Однако, судьба готовит очередной, самый неожиданный сюрприз бывшему наркодилеру. В город приезжает его подельник с грузом героина. Компаньон и не думал забывать о своем партнере все то время, пока тот строил свою новую жизнь. Он предлагает ему последнюю сделку. За все однажды приходится платить и бывший наркоделец оказывается на волосок от смерти.



    Качество: BDRip (720p)
    Видео: MPEG-4 AVC, 8459 Кбит/с, 1280x694, 23.976 кадр/с
    Аудио:
    1.Russian(Профессиональный многоголосый - DVD Group) - (AC3, 6 ch, 448 Кбит/с)
    2.Russian(Профессиональный двухголосый - НТВ ) - (AC3, 6 ch, 384 Кбит/с)
    3.Russian(Авторский одноголосый - Д.Пучков-новый) - (AC3, 6 ch, 448 Кбит/с)
    4.Russian(Авторский одноголосый - Д.Пучков-старый) - (AC3, 6 ch, 448 Кбит/с)
    4.Russian(Авторский одноголосый - Ю.Живов) - (AC3, 6 ch, 448 Кбит/с)
    5.Russian(Авторский одноголосый - С.Визгунов) - (AC3, 2 ch, 192 Кбит/с)
    6.English - (DTS, 6 ch, 1510 Кбит/с)
    Субтитры: Русские (полные, по новому и старому переводу Гоблина), английские (полные)

    Доп.инфа
    Видеоряд - DON.
    Сохранены оригинальные чаптеры как на Blu-ray.
    Полная перетяжка и синхронизация всех Русских аудио дорожек - Respector.
    Подгон Русских и английских субтитров - Respector.
    Сборка рипа - Respector.
    MediaInfo
    Format : Matroska
    Format version : Version 2
    File size : 7.72 GiB
    Duration : 1h 27mn
    Overall bit rate : 12.6 Mbps
    Movie name : Respector
    Encoded date : UTC 2013-09-28 04:39:30
    Writing application : mkvmerge v5.5.0 (;Healer;) built on Apr 24 2012 23:47:03
    Writing library : libebml v1.2.3 libmatroska v1.3.0

    Video
    ID : 1
    Format : AVC
    Format/Info : Advanced Video Codec
    Format profile : High@L4.1
    Format settings, CABAC : Yes
    Format settings, ReFrames : 9 frames
    Codec ID : V_MPEG4/ISO/AVC
    Duration : 1h 27mn
    Bit rate : 8 459 Kbps
    Width : 1 280 pixels
    Height : 694 pixels
    Display aspect ratio : 1.85:1
    Frame rate mode : Constant
    Frame rate : 23.976 fps
    Color space : YUV
    Chroma subsampling : 4:2:0
    Bit depth : 8 bits
    Scan type : Progressive
    Bits/(Pixel*Frame) : 0.397
    Stream size : 5.19 GiB (67%)
    Writing library : x264 core 138 r2358kMod 9e941d1
    Encoding settings : cabac=1 / ref=9 / deblock=1:-3:-3 / analyse=0x3:0x113 / me=umh / subme=11 / psy=1 / fade_compensate=0.00 / psy_rd=1.00:0.05 / mixed_ref=1 / me_range=32 / chroma_me=1 / trellis=2 / 8x8dct=1 / cqm=0 / deadzone=6,6 / fast_pskip=0 / chroma_qp_offset=-5 / threads=12 / lookahead_threads=2 / sliced_threads=0 / nr=0 / decimate=0 / interlaced=0 / bluray_compat=0 / constrained_intra=0 / bframes=9 / b_pyramid=2 / b_adapt=2 / b_bias=0 / direct=1 / weightb=1 / open_gop=0 / weightp=2 / keyint=230 / keyint_min=23 / scenecut=40 / intra_refresh=0 / rc_lookahead=60 / rc=crf / mbtree=0 / crf=19.5000 / qcomp=0.65 / qpmin=0 / qpmax=69 / qpstep=4 / vbv_maxrate=50000 / vbv_bufsize=62500 / crf_max=0.0 / nal_hrd=none / ip_ratio=1.10 / pb_ratio=1.10 / aq=3:0.85
    Language : English
    Default : Yes
    Forced : No

    Audio #1
    ID : 2
    Format : AC-3
    Format/Info : Audio Coding 3
    Mode extension : CM (complete main)
    Format settings, Endianness : Big
    Codec ID : A_AC3
    Duration : 1h 27mn
    Bit rate mode : Constant
    Bit rate : 448 Kbps
    Channel(s) : 6 channels
    Channel positions : Front: L C R, Side: L R, LFE
    Sampling rate : 48.0 KHz
    Bit depth : 16 bits
    Compression mode : Lossy
    Stream size : 281 MiB (4%)
    Title : MVO-DVD.Group
    Language : Russian
    Default : Yes
    Forced : Yes

    Audio #2
    ID : 3
    Format : AC-3
    Format/Info : Audio Coding 3
    Mode extension : CM (complete main)
    Format settings, Endianness : Big
    Codec ID : A_AC3
    Duration : 1h 27mn
    Bit rate mode : Constant
    Bit rate : 384 Kbps
    Channel(s) : 6 channels
    Channel positions : Front: L C R, Side: L R, LFE
    Sampling rate : 48.0 KHz
    Bit depth : 16 bits
    Compression mode : Lossy
    Stream size : 241 MiB (3%)
    Title : DVO-HTB
    Language : Russian
    Default : No
    Forced : No

    Audio #3
    ID : 4
    Format : AC-3
    Format/Info : Audio Coding 3
    Mode extension : CM (complete main)
    Format settings, Endianness : Big
    Codec ID : A_AC3
    Duration : 1h 27mn
    Bit rate mode : Constant
    Bit rate : 448 Kbps
    Channel(s) : 6 channels
    Channel positions : Front: L C R, Side: L R, LFE
    Sampling rate : 48.0 KHz
    Bit depth : 16 bits
    Compression mode : Lossy
    Stream size : 281 MiB (4%)
    Title : Goblin-new
    Language : Russian
    Default : No
    Forced : No

    Audio #4
    ID : 5
    Format : AC-3
    Format/Info : Audio Coding 3
    Mode extension : CM (complete main)
    Format settings, Endianness : Big
    Codec ID : A_AC3
    Duration : 1h 27mn
    Bit rate mode : Constant
    Bit rate : 448 Kbps
    Channel(s) : 6 channels
    Channel positions : Front: L C R, Side: L R, LFE
    Sampling rate : 48.0 KHz
    Bit depth : 16 bits
    Compression mode : Lossy
    Stream size : 281 MiB (4%)
    Title : Goblin-old
    Language : Russian
    Default : No
    Forced : No

    Audio #5
    ID : 6
    Format : AC-3
    Format/Info : Audio Coding 3
    Mode extension : CM (complete main)
    Format settings, Endianness : Big
    Codec ID : A_AC3
    Duration : 1h 27mn
    Bit rate mode : Constant
    Bit rate : 448 Kbps
    Channel(s) : 6 channels
    Channel positions : Front: L C R, Side: L R, LFE
    Sampling rate : 48.0 KHz
    Bit depth : 16 bits
    Compression mode : Lossy
    Stream size : 281 MiB (4%)
    Title : Zhivov
    Language : Russian
    Default : No
    Forced : No

    Audio #6
    ID : 7
    Format : AC-3
    Format/Info : Audio Coding 3
    Mode extension : CM (complete main)
    Format settings, Endianness : Big
    Codec ID : A_AC3
    Duration : 1h 27mn
    Bit rate mode : Constant
    Bit rate : 192 Kbps
    Channel(s) : 2 channels
    Channel positions : Front: L R
    Sampling rate : 48.0 KHz
    Bit depth : 16 bits
    Compression mode : Lossy
    Stream size : 121 MiB (2%)
    Title : Vizgunov
    Language : Russian
    Default : No
    Forced : No

    Audio #7
    ID : 8
    Format : DTS
    Format/Info : Digital Theater Systems
    Mode : 16
    Format settings, Endianness : Big
    Codec ID : A_DTS
    Duration : 1h 27mn
    Bit rate mode : Constant
    Bit rate : 1 509 Kbps
    Channel(s) : 6 channels
    Channel positions : Front: L C R, Side: L R, LFE
    Sampling rate : 48.0 KHz
    Bit depth : 24 bits
    Compression mode : Lossy
    Stream size : 948 MiB (12%)
    Language : English
    Default : No
    Forced : No

    Text #1
    ID : 9
    Format : UTF-8
    Codec ID : S_TEXT/UTF8
    Codec ID/Info : UTF-8 Plain Text
    Language : Russian
    Default : No
    Forced : No

    Text #2
    ID : 10
    Format : UTF-8
    Codec ID : S_TEXT/UTF8
    Codec ID/Info : UTF-8 Plain Text
    Title : Goblin-new
    Language : Russian
    Default : No
    Forced : No

    Text #3
    ID : 11
    Format : UTF-8
    Codec ID : S_TEXT/UTF8
    Codec ID/Info : UTF-8 Plain Text
    Title : Goblin-old
    Language : Russian
    Default : No
    Forced : No

    Text #4
    ID : 12
    Format : UTF-8
    Codec ID : S_TEXT/UTF8
    Codec ID/Info : UTF-8 Plain Text
    Language : Russian
    Default : No
    Forced : No

    Menu
    00:00:00.000 : :Chapter 01
    00:05:18.318 : :Chapter 02
    00:12:42.970 : :Chapter 03
    00:17:10.029 : :Chapter 04
    00:22:43.362 : :Chapter 05
    00:27:42.494 : :Chapter 06
    00:33:41.019 : :Chapter 07
    00:38:28.139 : :Chapter 08
    00:43:30.316 : :Chapter 09
    00:49:01.939 : :Chapter 10
    00:55:13.310 : :Chapter 11
    00:59:53.298 : :Chapter 12
    01:05:45.232 : :Chapter 13
    01:10:38.067 : :Chapter 14
    01:17:07.998 : :Chapter 15
    01:22:45.961 : :Chapter 16
    01:27:47.720 : :Chapter 17
    Скриншоты

    Размер: 7.72 GB (8288287109 Bytes)

    Кровавый четверг / Thursday (1998) BDRip 720p | P, P2, A скачать через торрент бесплатно
    загрузка...
    Рейтинг →
     (голосов: 1, оценка 4/5, голосовать можно 1 раз )

    Другие торренты по теме:

  • Кровавый четверг / Thursday (1998) HDTVRip-AVC от olegek70 | P, A
  • Кровавый четверг / Thursday (1998) BDRip-AVC | P, P2, A
  • Кровавый четверг / Thursday (1998) BDRip-AVC от Rulya74 | P скачать через торрент бесплатно
  • Кровавый четверг / Thursday (1998) BDRip 1080p | P, A скачать через торрент бесплатно
  • Кровавый четверг / Thursday (1998) BDRip-AVC | P2, A
  • Кровавый четверг / Thursday (1998) HDRip от Scarabey | P
  • Кровавый четверг / Thursday (1998) BDRip от HQCLUB скачать через торрент бесплатно
  • Кровавый четверг / Thursday (1998) BDRip 720p | P, A


    • Комментарии (0):

      Информация

      Информация

        Посетители, находящиеся в группе Гости, не могут оставлять комментарии в данной новости.

        ↓ Меню



        ↓ Опрос

        А Вы добавили сайт в закладки?
        Да
        Не


        Top 10 за месяц (Фильмы)