.
Авторизация | Регистрация
Хочешь лучшие торренты? Добавь свой email!
Добавить
» » Мальчишник: Часть III / The Hangover Part III (2013) BDRip 1080p от Neofilm | Лицензия скачать через торрент бесплатно




    Мальчишник: Часть III / The Hangover Part III (2013) BDRip 1080p от Neofilm | Лицензия скачать через торрент бесплатно

    Опубликовал: Админ | Дата: 27-02-2015, 11:09 | Просмотров: 293



    Информация о фильме
    Название: Мальчишник: Часть III
    Оригинальное название: The Hangover Part III
    Год выхода: 2013
    Жанр: комедия
    Режиссер: Тодд Филлипс
    В ролях: Брэдли Купер, Эд Хелмс, Зак Галифианакис, Кен Жонг, Джон Гудман, Джастин Барта, Джеффри Тэмбор, Мелисса МакКарти, Хэзер Грэм, Джейми Чунг

    О фильме:
    В этот раз никакой свадьбы. Никакого мальчишника. Казалось бы, что могло пойти не так? Но когда Волчья стая оказывается на дороге, все ставки снимаются.



    Страна: США
    Продолжительность: 01:40:06
    Перевод: Дубляж, лицензия

    Файл
    Кодек: x.264
    Качество: BDRip 1080p
    Видео: 9810 kb/s, 1920x800, 23.976 fps
    Звук:
    AC3, 640 kb/s (6Ch)-Дубляж, лицензия
    AC3, 640 kb/s (6Ch)-Оригинал
    AC3, 640 kb/s (6Ch)-Дубляж Украина, лицензия ТЫЦ
    AC3, 640 kb/s (6Ch)-Авторский одноголосый, закадровый (Д.Пучков)ТЫЦ
    Субтитры: Русские, английские

    Скриншоты


    Mi

    Общее
    Формат : Matroska
    Версия формата : Version 2
    Размер файла : 7,75 Гбайт
    Продолжительность : 1 ч. 40 м.
    Общий поток : 11,1 Мбит/сек
    Название фильма : Мальчишник: Часть III / The Hangover Part III (2013)-BDRip 1080p от Neofilm
    Дата кодирования : UTC 2013-09-28 11:18:15
    Программа кодирования : mkvmerge v3.3.0 (;Language;) built on Mar 24 2010 14:59:24
    Библиотека кодирования : libebml v0.8.0 libmatroska v0.9.0

    Видео
    Идентификатор : 1
    Формат : AVC
    Формат/Информация : Advanced Video Codec
    Профиль формата : High@L4.1
    Параметр CABAC формата : Да
    Параметр ReFrames формата : 5 кадров
    Идентификатор кодека : V_MPEG4/ISO/AVC
    Продолжительность : 1 ч. 40 м.
    Битрейт : 9810 Кбит/сек
    Ширина : 1920 пикселей
    Высота : 800 пикселей
    Соотношение сторон : 2,40:1
    Режим частоты кадров : Постоянный
    Частота кадров : 23,976 кадра/сек
    Цветовое пространство : YUV
    Субдискретизация насыщенности : 4:2:0
    Битовая глубина : 8 бит
    Тип развёртки : Прогрессивная
    Бит/(Пиксели*Кадры) : 0.266
    Размер потока : 6,71 Гбайт (86%)
    Заголовок : Мальчишник: Часть III / The Hangover Part III (2013)
    Библиотека кодирования : x264 core 138 r2358 9e941d1
    Настройки программы : cabac=1 / ref=5 / deblock=1:-3:-3 / analyse=0x3:0x113 / me=umh / subme=10 / psy=1 / psy_rd=1.00:0.05 / mixed_ref=1 / me_range=32 / chroma_me=1 / trellis=2 / 8x8dct=1 / cqm=0 / deadzone=21,11 / fast_pskip=0 / chroma_qp_offset=-3 / threads=12 / lookahead_threads=1 / sliced_threads=0 / nr=0 / decimate=0 / interlaced=0 / bluray_compat=0 / constrained_intra=0 / bframes=5 / b_pyramid=2 / b_adapt=2 / b_bias=0 / direct=3 / weightb=1 / open_gop=0 / weightp=2 / keyint=240 / keyint_min=23 / scenecut=40 / intra_refresh=0 / rc_lookahead=40 / rc=2pass / mbtree=0 / bitrate=9810 / ratetol=1.0 / qcomp=0.60 / qpmin=0 / qpmax=69 / qpstep=4 / cplxblur=20.0 / qblur=0.5 / vbv_maxrate=50000 / vbv_bufsize=62500 / nal_hrd=none / ip_ratio=1.40 / pb_ratio=1.30 / aq=2:1.00
    Язык : English
    Default : Нет
    Forced : Нет

    Аудио #1
    Идентификатор : 2
    Формат : AC-3
    Формат/Информация : Audio Coding 3
    Расширение режима : CM (complete main)
    Параметр Endianness формата : Big
    Идентификатор кодека : A_AC3
    Продолжительность : 1 ч. 40 м.
    Вид битрейта : Постоянный
    Битрейт : 640 Кбит/сек
    Каналы : 6 каналов
    Расположение каналов : Front: L C R, Side: L R, LFE
    Частота : 48,0 КГц
    Битовая глубина : 16 бит
    Метод сжатия : С потерями
    Размер потока : 458 Мбайт (6%)
    Заголовок : AC3 5.1 @ 640 kbps - DUB, Blu-ray CEE
    Язык : Russian
    Default : Да
    Forced : Да

    Аудио #2
    Идентификатор : 3
    Формат : AC-3
    Формат/Информация : Audio Coding 3
    Расширение режима : CM (complete main)
    Параметр Endianness формата : Big
    Идентификатор кодека : A_AC3
    Продолжительность : 1 ч. 40 м.
    Вид битрейта : Постоянный
    Битрейт : 640 Кбит/сек
    Каналы : 6 каналов
    Расположение каналов : Front: L C R, Side: L R, LFE
    Частота : 48,0 КГц
    Битовая глубина : 16 бит
    Метод сжатия : С потерями
    Размер потока : 458 Мбайт (6%)
    Язык : English
    Default : Нет
    Forced : Нет

    Текст #1
    Идентификатор : 4
    Формат : UTF-8
    Идентификатор кодека : S_TEXT/UTF8
    Идентификатор кодека/Информация : UTF-8 Plain Text
    Заголовок : Forced, iTunes
    Язык : Russian
    Default : Да
    Forced : Да

    Текст #2
    Идентификатор : 5
    Формат : UTF-8
    Идентификатор кодека : S_TEXT/UTF8
    Идентификатор кодека/Информация : UTF-8 Plain Text
    Заголовок : iTunes
    Язык : Russian
    Default : Нет
    Forced : Нет

    Текст #3
    Идентификатор : 6
    Формат : UTF-8
    Идентификатор кодека : S_TEXT/UTF8
    Идентификатор кодека/Информация : UTF-8 Plain Text
    Язык : English
    Default : Нет
    Forced : Нет

    Текст #4
    Идентификатор : 7
    Формат : UTF-8
    Идентификатор кодека : S_TEXT/UTF8
    Идентификатор кодека/Информация : UTF-8 Plain Text
    Заголовок : SDH-COLORED
    Язык : English
    Default : Нет
    Forced : Нет

    Текст #5
    Идентификатор : 8
    Формат : UTF-8
    Идентификатор кодека : S_TEXT/UTF8
    Идентификатор кодека/Информация : UTF-8 Plain Text
    Заголовок : SDH
    Язык : English
    Default : Нет
    Forced : Нет

    Меню
    00:00:00.000 : en:Chapter 1
    00:10:49.982 : en:Chapter 2
    00:17:47.691 : en:Chapter 3
    00:26:16.992 : en:Chapter 4
    00:37:56.857 : en:Chapter 5
    00:47:01.735 : en:Chapter 6
    00:55:08.680 : en:Chapter 7
    01:06:09.632 : en:Chapter 8
    01:19:41.735 : en:Chapter 9
    01:27:44.842 : en:Chapter 10
    01:34:53.020 : en:Chapter 11


    Релиз от:
    Размер: 7.75 GB (8326697852 Bytes)

    Мальчишник: Часть III / The Hangover Part III (2013) BDRip 1080p от Neofilm | Лицензия скачать через торрент бесплатно
    загрузка...
    Рейтинг →
     (голосов: 1, оценка 3/5, голосовать можно 1 раз )

    Другие торренты по теме:

  • Мальчишник: Часть III / The Hangover Part III (2013) CamRip
  • Мальчишник: Часть III / The Hangover Part III (2013) DVDRip | Гоблин
  • Мальчишник: Часть III / The Hangover Part III (2013) DVDRip | Звук с CAMRip
  • Мальчишник: Часть III / The Hangover Part III (2013) WEB-DLRip | iTunes Russia
  • Мальчишник: Часть III / The Hangover Part III (2013) WEB-DL 720p | iTunes Russia
  • Мальчишник: Часть III / The Hangover Part III (2013) BDRip-AVC от MediaClub | D | iTunes Russia скачать бесплатно через торрент
  • Мальчишник: Часть III / The Hangover Part III (2013) | BDRip-720p | D скачать бесплатно через торрент
  • Мальчишник: Часть III / The Hangover Part III (2013) WEB-DLRip-AVC от Youtracker | D | iTunes Russia скачать бесплатно через торрент


    • Комментарии (0):

      Информация

      Информация

        Посетители, находящиеся в группе Гости, не могут оставлять комментарии в данной новости.

        ↓ Меню



        ↓ Опрос

        А Вы добавили сайт в закладки?
        Да
        Не


        Top 10 за месяц (Фильмы)