.
Авторизация | Регистрация
Хочешь лучшие торренты? Добавь свой email!
Добавить
» » Что творят немецкие мужчины / Mann tut was Mann kann (2012) BDRip 720p | Чистый звук скачать через торрент бесплатно




    Что творят немецкие мужчины / Mann tut was Mann kann (2012) BDRip 720p | Чистый звук скачать через торрент бесплатно

    Опубликовал: Админ | Дата: 27-02-2015, 11:09 | Просмотров: 338



    Что творят немецкие мужчины / Mann tut was Mann kann

    Год выпуска: 2012
    Производство: Германия, NFP media rights, Warner Bros
    Жанр: Комедия
    Перевод: Многоголосый закадровый, профессиональный (чистый звук)
    Субтитры: Русский, Немецкий
    Продолжительность: 01:47:19

    Режиссер: Марк Ротемунд

    Продюсер: Габриэль Юнг, Клеменс Шеффер, Александр Тис

    Актеры: Вотан Вильке Мёринг, Жасмин Герат, Ян Йозеф Лиферс, Фахри Огюн Ярдим, Оливер Кориттке, Фридерике Кемптер, Каролине Шух, Хеди Кригескотте, Петер Сатман, Ноэми Беседес

    Описание фильма:
    Пол знает толк в женщинах и всегда даст правильный совет, он классный парень. Но вот самому Полу не повезло: понравившаяся ему женщина оказалась не свободна. Неужели лучшие друзья, включая ротвейлера, не смогут ему помочь? Если немецкие мужчины захотят, они такое творят!



    Файл
    Качество видео: BDRip 720p
    Видео: MPEG-4 AVC/H.264, ~2914 kb/s, 1280x544
    Аудио 1: 48 kHz, MP3, 2 ch, 256 kbps (русский)
    Аудио 2: 48 kHz, AC3, 6 ch, 448 kbps (немецкий)
    Семпл

    Релиз: NNM-CLUB

    MediaInfo:
    Format : Matroska
    Format version : Version 4 / Version 2
    File size : 2.77 GiB
    Duration : 1h 47mn
    Overall bit rate : 3 691 Kbps
    Encoded date : UTC 2013-09-26 05:37:36
    Writing application : mkvmerge v6.4.1 (;Omega Point;) built on Sep 16 2013 22:05:10
    Writing library : libebml v1.3.0 libmatroska v1.4.1

    Video
    ID : 1
    Format : AVC
    Format/Info : Advanced Video Codec
    Format profile : High@L4.1
    Format settings, CABAC : Yes
    Format settings, ReFrames : 5 frames
    Codec ID : V_MPEG4/ISO/AVC
    Duration : 1h 47mn
    Bit rate : 2 914 Kbps
    Width : 1 280 pixels
    Height : 544 pixels
    Display aspect ratio : 2.35:1
    Frame rate mode : Constant
    Frame rate : 24.000 fps
    Color space : YUV
    Chroma subsampling : 4:2:0
    Bit depth : 8 bits
    Scan type : Progressive
    Bits/(Pixel*Frame) : 0.174
    Stream size : 2.18 GiB (79%)
    Title : Mann tut was Mann kann (2012)
    Writing library : x264 core 129 r2245 bc13772
    Encoding settings : cabac=1 / ref=5 / deblock=1:0:0 / analyse=0x3:0x113 / me=umh / subme=7 / psy=1 / psy_rd=1.00:0.00 / mixed_ref=1 / me_range=16 / chroma_me=1 / trellis=1 / 8x8dct=1 / cqm=0 / deadzone=21,11 / fast_pskip=0 / chroma_qp_offset=-2 / threads=6 / lookahead_threads=1 / sliced_threads=0 / nr=0 / decimate=1 / interlaced=0 / bluray_compat=0 / constrained_intra=0 / bframes=3 / b_pyramid=2 / b_adapt=1 / b_bias=0 / direct=1 / weightb=1 / open_gop=0 / weightp=2 / keyint=250 / keyint_min=24 / scenecut=40 / intra_refresh=0 / rc_lookahead=40 / rc=crf / mbtree=1 / crf=20.0 / qcomp=0.60 / qpmin=0 / qpmax=69 / qpstep=4 / ip_ratio=1.40 / aq=1:1.00
    Default : Yes
    Forced : No

    Audio #1
    ID : 2
    Format : MPEG Audio
    Format version : Version 1
    Format profile : Layer 3
    Mode : Joint stereo
    Codec ID : A_MPEG/L3
    Codec ID/Hint : MP3
    Duration : 1h 47mn
    Bit rate mode : Constant
    Bit rate : 256 Kbps
    Channel(s) : 2 channels
    Sampling rate : 48.0 KHz
    Compression mode : Lossy
    Stream size : 197 MiB (7%)
    Title : Профессиональный (многоголосый)
    Language : Russian
    Default : Yes
    Forced : No

    Audio #2
    ID : 3
    Format : AC-3
    Format/Info : Audio Coding 3
    Mode extension : CM (complete main)
    Format settings, Endianness : Big
    Codec ID : A_AC3
    Duration : 1h 47mn
    Bit rate mode : Constant
    Bit rate : 448 Kbps
    Channel(s) : 6 channels
    Channel positions : Front: L C R, Side: L R, LFE
    Sampling rate : 48.0 KHz
    Bit depth : 16 bits
    Compression mode : Lossy
    Stream size : 344 MiB (12%)
    Language : German
    Default : No
    Forced : No

    Text #1
    ID : 4
    Format : UTF-8
    Codec ID : S_TEXT/UTF8
    Codec ID/Info : UTF-8 Plain Text
    Language : Russian
    Default : No
    Forced : No

    Text #2
    ID : 5
    Format : UTF-8
    Codec ID : S_TEXT/UTF8
    Codec ID/Info : UTF-8 Plain Text
    Language : German
    Default : No
    Forced : No
    Скриншоты

    Размер: 2.77 GB (2971081900 Bytes)

    Что творят немецкие мужчины / Mann tut was Mann kann (2012) BDRip 720p | Чистый звук скачать через торрент бесплатно
    загрузка...
    Рейтинг →
     (голосов: 1, оценка 5/5, голосовать можно 1 раз )

    Другие торренты по теме:

  • Что творят немецкие мужчины / Mann tut was Mann kann (2012) HDRip | L1
  • Что творят немецкие мужчины / Mann tut was Mann kann (2012) HDRip | Звук с TS
  • Что творят немецкие мужчины / Mann tut was Mann kann (2012) HDRip от INTERCINEMA | Чистый звук скачать через торрент бесплатно
  • Что творят немецкие мужчины / Mann tut was Mann kann (2012) HDRip | Чистый звук
  • Что творят мужчины! 2 (2015) скачать через торрент бесплатно
  • Что творят мужчины! 2 (2015) WEBRip
  • Что творят мужчины! 2 (2015) WEB-DLRip | iTunes
  • Что творят мужчины! 2 (2015) WEB-DLRip


    • Комментарии (0):

      Информация

      Информация

        Посетители, находящиеся в группе Гости, не могут оставлять комментарии в данной новости.

        ↓ Меню



        ↓ Опрос

        А Вы добавили сайт в закладки?
        Да
        Не


        Top 10 за месяц (Фильмы)