.
Авторизация | Регистрация
Хочешь лучшие торренты? Добавь свой email!
Добавить
» » Под куполом / Under the Dome (2013) WEB-DLRip от Generalfilm | КПК | LostFilm скачать торрент бесплатно




    Под куполом / Under the Dome (2013) WEB-DLRip от Generalfilm | КПК | LostFilm скачать торрент бесплатно

    Опубликовал: Админ | Дата: 27-02-2015, 11:09 | Просмотров: 504



    Информация о фильме
    Название: Под куполом
    Оригинальное название: Under the Dome
    Год выпуска: 2013
    Жанр: Мистический триллер, научная фантастика, экранизация
    Режиссер: Джек Бендер
    В ролях: Майк Фогель, Натали Мартинез, Бриттани Робертсон, Александр Кох, Колин Форд, Николас Стронг, Рашель Лефевр, Дин Норрис, Маккензи Линтц, Аиша Хиндс, Джолин Парди, Леон Риппи, Нед Беллами, Джефф Фэйи, Мэр Уиннингхэм, Саманта Мэтис, Дэйл Рауль

    О фильме:
    В результате загадочного явления силовой купол отрезает жителей города от остального мира. Паника, вызванная этим явлением, приводит к ужасающим последствиям. Самолеты и другая техника не способны преодолеть полусферическое поле, что приводит к неисчислимым человеческим жертвам. Внутри же города царит хаос и анархия, процветает насилие и мародерство. Люди с внешней стороны купола так же ничем не могут помочь обреченным. Потерявшие надежду на спасение люди следуют жесткому принципу самосохранения: каждый сам за себя. Вот только все ли?!



    Список серий:
    01. Pilot / Пилот
    02. The Fire / Пожар
    03. Manhunt / Преследование
    04. Outbreak / Вспышка
    05. Blue on Blue / Удар по своим
    06. The Endless Thirst / Бесконечная жажда
    07. Imperfect Circles / Несовершенные круги
    08. Thicker Than Water / Кровь не водица
    09. The Fourth Hand / Четвёртая рука
    10. Let the Games Begin / Да начнётся игра!
    11. Speak of the Devil / Помяни чёрта
    12. Exigent Circumstances / Неотложных обстоятельствах
    13. Curtains / Шторы

    Страна: США
    Студия: Amblin Television, CBS Television Studios
    Продолжительность: 13 x ~00:43:00
    Перевод: Профессиональный (многоголосый, закадровый) LostFilm

    Файл
    Формат: MP4
    Качество: WEB-DLRip | КПК
    Видео: MPEG-4 AVC (x264), 640x360, ~500 kbps, 23.976 fps
    Аудио: AAC LC, 48.0 KHz, 2 ch, 128 Kbps
    Субтитры: Нет

    Семпл

    Скриншоты

    MI
    K:киноPod.Kupolom.S01.2013.AVC.WEB-DLRip.KPK.GeneralfilmPod.Kupolom.s01e07.2013.AVC.WEB-DLRip.KPK.Generalfilm.mp4
    Format : MPEG-4
    Format profile : Base Media
    Codec ID : isom
    File size : 192 MiB
    Duration : 42mn 41s
    Overall bit rate mode : Variable
    Overall bit rate : 630 Kbps
    Encoded date : UTC 2013-09-24 07:29:12
    Tagged date : UTC 2013-09-24 07:29:12
    Video #1
    ID : 1
    Format : AVC
    Format/Info : Advanced Video Codec
    Format profile : Baseline@L4.1
    Format settings, CABAC : No
    Format settings, ReFrames : 6 frames
    Codec ID : avc1
    Codec ID/Info : Advanced Video Coding
    Duration : 42mn 41s
    Bit rate : 500 Kbps
    Maximum bit rate : 4 094 Kbps
    Width : 640 pixels
    Height : 360 pixels
    Display aspect ratio : 16:9
    Frame rate mode : Constant
    Frame rate : 23.976 fps
    Color space : YUV
    Chroma subsampling : 4:2:0
    Bit depth : 8 bits
    Scan type : Progressive
    Bits/(Pixel*Frame) : 0.091
    Stream size : 153 MiB (79%)
    Writing library : x264 core 119 r2106 07efeb4
    Encoding settings : cabac=0 / ref=6 / deblock=1:-1:-1 / analyse=0x1:0x111 / me=umh / subme=7 / psy=1 / psy_rd=1.00:0.00 / mixed_ref=0 / me_range=16 / chroma_me=1 / trellis=1 / 8x8dct=0 / cqm=0 / deadzone=21,11 / fast_pskip=0 / chroma_qp_offset=-2 / threads=3 / sliced_threads=0 / nr=0 / decimate=1 / interlaced=0 / bluray_compat=0 / constrained_intra=0 / bframes=0 / weightp=0 / keyint=250 / keyint_min=23 / scenecut=40 / intra_refresh=0 / rc_lookahead=60 / rc=2pass / mbtree=1 / bitrate=500 / ratetol=1.0 / qcomp=0.60 / qpmin=0 / qpmax=69 / qpstep=4 / cplxblur=20.0 / qblur=0.5 / ip_ratio=1.40 / aq=1:1.00
    Encoded date : UTC 2013-09-24 07:29:12
    Tagged date : UTC 2013-09-24 07:30:00
    Audio #2
    ID : 2
    Format : AAC
    Format/Info : Advanced Audio Codec
    Format profile : LC
    Codec ID : 40
    Duration : 42mn 41s
    Bit rate mode : Variable
    Bit rate : 127 Kbps
    Maximum bit rate : 150 Kbps
    Channel(s) : 2 channels
    Channel positions : Front: L R
    Sampling rate : 48.0 KHz
    Compression mode : Lossy
    Stream size : 38.9 MiB (20%)
    Encoded date : UTC 2013-09-24 07:29:57
    Tagged date : UTC 2013-09-24 07:30:00

    Релиз от:
    Залил: toys_watch
    Размер: 2.40 GB (2581131926 Bytes)

    Под куполом / Under the Dome (2013) WEB-DLRip от Generalfilm | КПК | LostFilm торрент скачать бесплатно
    загрузка...
    Рейтинг →
     (голосов: 1, оценка 5/5, голосовать можно 1 раз )

    Другие торренты по теме:

  • Скуби-Ду! Под куполом цирка / Big Top Scooby-Doo! (2012) DVDRip | L1
  • Безумный Макс 3: Под куполом грома / Mad Max Beyond Thunderdome (1985) HDTV 1080p
  • Под куполом / Under the Dome (2013) WEB-DL 720р | Кубик в кубе
  • Под куполом / Under the Dome (2013) WEB-DLRip-AVC | Baibako
  • Под куполом / Under the Dome (2013) WEB-DLRip | Baibako
  • Под куполом / Under the Dome (2013) WEB-DLRip-AVC 1080p l AlexFilm
  • Под куполом / Under the Dome (2013) WEB-DLRip от Scarabey | LostFilm
  • Под куполом / Under the Dome (2013) WEB-DL 720p | Specter


    • Комментарии (0):

      Информация

      Информация

        Посетители, находящиеся в группе Гости, не могут оставлять комментарии в данной новости.

        ↓ Меню



        ↓ Опрос

        А Вы добавили сайт в закладки?
        Да
        Не


        Top 10 за месяц (Фильмы)