.
Авторизация | Регистрация
Хочешь лучшие торренты? Добавь свой email!
Добавить
» » Серебряная пуля / Silver Bullet (1985) HDTVRip 720p | P2, A скачать торрент бесплатно




    Серебряная пуля / Silver Bullet (1985) HDTVRip 720p | P2, A скачать торрент бесплатно

    Опубликовал: Админ | Дата: 27-02-2015, 11:09 | Просмотров: 420

    Серебряная пуля / Silver Bullet



    Год выпуска: 1985
    Страна: США
    Жанр: Мистика, ужасы, триллер
    Продолжительность: 1:34:49
    Перевод: Профессиональный (двухголосый, закадровый); авторский одноголосый Андрея Гаврилова
    Субтитры: Английские

    Режиссер: Дэниел Эттайес

    В ролях: Кори Хэйм, Гэри Бьюзи, Меган Фоллоуз, Эверетт МакГилл, Робин Гроувз, Леон Рассом, Терри О;Квин, Билл Смитрович

    Описание:
    Маленький американский городок охвачен страхом: по ночам при полной луне кто-то зверски убивает его жителей. Кто-то покрытый шерстью, таинственный и неуловимый. Добровольцы, отправившиеся на поиски убийцы, сами становятся его жертвами. Лишь тринадцатилетний Марти, прикованный к инвалидной коляске, убежден, что убийства совершает оборотень, против которого бессильно любое оружие, кроме серебряной пули.

    Релиз от: team_6strun

    Качество: HDTVRip 720p
    Формат: MKV
    Видео: 1280x546; 23.976 fps, 6220 Kbps
    Аудио 1: AC3; 48 kHz; 6ch; 448kbps - закадровый перевод
    Аудио 2: AC3; 48 kHz; 2ch; 192kbps - Андрей Гаврилов
    Аудио 3: AC3; 48 kHz; 2ch; 384kbps - оригинал

    MediaInfo
    Format : Matroska
    File size : 4.80 GiB
    Duration : 1h 34mn
    Overall bit rate : 7 245 Kbps
    Encoded date : UTC 2010-05-13 05:29:22
    Writing application : mkvmerge v2.4.0 (;Fumbling Towards Ecstasy;) built on Oct 11 2008 20:13:15
    Writing library : libebml v0.7.7 libmatroska v0.8.1

    Video
    ID : 1
    Format : AVC
    Format/Info : Advanced Video Codec
    Format profile : High@L4.1
    Format settings, CABAC : Yes
    Format settings, ReFrames : 8 frames
    Muxing mode : Container profile=Unknown@4.1
    Codec ID : V_MPEG4/ISO/AVC
    Duration : 1h 34mn
    Bit rate : 6 077 Kbps
    Nominal bit rate : 6 220 Kbps
    Width : 1 280 pixels
    Height : 546 pixels
    Display aspect ratio : 2.35:1
    Frame rate : 23.976 fps
    Resolution : 24 bits
    Colorimetry : 4:2:0
    Scan type : Progressive
    Bits/(Pixel*Frame) : 0.363
    Stream size : 4.02 GiB (84%)
    Writing library : x264 core 94 r1570 d9db8b3
    Encoding settings : cabac=1 / ref=9 / deblock=1:-3:-3 / analyse=0x3:0x133 / me=umh / subme=9 / psy=1 / psy_rd=1.00:0.00 / mixed_ref=1 / me_range=24 / chroma_me=1 / trellis=2 / 8x8dct=1 / cqm=0 / deadzone=21,11 / fast_pskip=1 / chroma_qp_offset=-2 / threads=8 / sliced_threads=0 / nr=0 / decimate=1 / interlaced=0 / constrained_intra=0 / bframes=6 / b_pyramid=1 / b_adapt=2 / b_bias=0 / direct=3 / wpredb=1 / wpredp=2 / keyint=250 / keyint_min=25 / scenecut=40 / intra_refresh=0 / rc_lookahead=0 / rc=2pass / mbtree=0 / bitrate=6220 / ratetol=1.0 / qcomp=0.60 / qpmin=10 / qpmax=51 / qpstep=4 / cplxblur=20.0 / qblur=0.5 / vbv_maxrate=50000 / vbv_bufsize=50000 / ip_ratio=1.40 / pb_ratio=1.30 / aq=1:0.80 / nal_hrd=none
    Language : English

    Audio #1
    ID : 2
    Format : AC-3
    Format/Info : Audio Coding 3
    Codec ID : A_AC3
    Duration : 1h 34mn
    Bit rate mode : Constant
    Bit rate : 448 Kbps
    Channel(s) : 6 channels
    Channel positions : Front: L C R, Surround: L R, LFE
    Sampling rate : 48.0 KHz
    Stream size : 304 MiB (6%)
    Title : Zakadr
    Language : Russian

    Audio #2
    ID : 3
    Format : AC-3
    Format/Info : Audio Coding 3
    Codec ID : A_AC3
    Duration : 1h 34mn
    Bit rate mode : Constant
    Bit rate : 192 Kbps
    Channel(s) : 2 channels
    Channel positions : L R
    Sampling rate : 48.0 KHz
    Stream size : 130 MiB (3%)
    Title : Gavrilov
    Language : Russian

    Audio #3
    ID : 4
    Format : AC-3
    Format/Info : Audio Coding 3
    Codec ID : A_AC3
    Duration : 1h 34mn
    Bit rate mode : Constant
    Bit rate : 384 Kbps
    Channel(s) : 2 channels
    Channel positions : L R
    Sampling rate : 48.0 KHz
    Video delay : 32ms
    Stream size : 260 MiB (5%)
    Title : English
    Language : English

    Text
    ID : 5
    Format : ASS
    Codec ID : S_TEXT/ASS
    Codec ID/Info : Advanced Sub Station Alpha
    Title : English
    Language : English
    Скриншоты

    Размер: 4.80 GB (5152280413 Bytes)

    Серебряная пуля / Silver Bullet (1985) HDTVRip 720p | P2, A торрент скачать бесплатно
    загрузка...
    Рейтинг →
     (голосов: 1, оценка 4/5, голосовать можно 1 раз )

    Другие торренты по теме:

  • Серебряная пуля / Silver Bullet (1985) WEB-DL 720p | P2, P, A
  • Серебряная пуля / Silver Bullet (1985) WEBRip 1080p | P, P2, A
  • Серебряная пуля / Silver Bullet (1985) WEBRip 720p от k.e.n NNMClub | P, P2, A
  • Серебряная пуля / Silver Bullet (1985) BDRip 720p от Koenig | P, P2, A
  • Серебряная пуля / Silver Bullet (1985) HDRip от Koenig | P


    • Комментарии (0):

      Информация

      Информация

        Посетители, находящиеся в группе Гости, не могут оставлять комментарии в данной новости.

        ↓ Меню



        ↓ Опрос

        А Вы добавили сайт в закладки?
        Да
        Не


        Top 10 за месяц (Фильмы)