.
Авторизация | Регистрация
Хочешь лучшие торренты? Добавь свой email!
Добавить
» » Безумные преподы / Les profs (2013) HDRip-AVC | Чистый звук скачать через торрент бесплатно




    Безумные преподы / Les profs (2013) HDRip-AVC | Чистый звук скачать через торрент бесплатно

    Опубликовал: Админ | Дата: 27-02-2015, 11:09 | Просмотров: 341



    Информация о фильме
    Название: Безумные преподы
    Оригинальное название: Les profs
    Год выхода: 2013
    Жанр: комедия
    Режиссер: Пьер-Франсуа Мартен-Лаваль
    В ролях: Кристиан Клавье, Изабель Нанти, Пьер-Франсуа Мартен-Лаваль, Кев Адамс, Франсуа Морель, Арно Дюкре, Стефи Сельма, Рэймонд Бочар, Фред Туш, Филипп Дюкло

    О фильме: Лицей имени Жюля Ферри — худший во Франции. Показатели успеваемости настолько низки, что школа на грани закрытия. Единственный шанс спасти учебное заведение — не провалить ЕГЭ, на что решительно настроены учащиеся старшего класса — редкие бездельники и раздолбаи. Чтобы избежать позора, директор вызывает подкрепление: десант сумасбродных преподов, которые оказываются не намного лучше своих учеников. В их числе брутальный качок Эрик (учитель физкультуры), отвязная толстуха с бензопилой Глэдис (учитель английского), фанатичный экспериментатор Альберт (учитель химии), сексапильная шоколадка Амина (учитель французского), безобидный отморозок в костюме Наполеона Полошон (учитель истории) и преподаватель неопознанного предмета, любитель покурить травку и поговорить о том о сем — пофигист Кутиро. Если лучшее решение — худший учитель, как они сдадут ЕГЭ?



    Выпущено: Франция
    Продолжительность: 01:24:32
    Озвучивание: Дублированное Чистый звук

    Файл
    Формат: MKV
    Качество: HDRip-AVC
    Видео: 2063 Kb/s, 1024x432
    Аудио: Russian/French: AC3, 192 kb/s (2 ch)







    MI

    Format : Matroska
    Format version : Version 4 / Version 2
    File size : 1.45 GiB
    Duration : 1h 24mn
    Overall bit rate : 2 439 Kbps
    Movie name : Безумные преподы
    Encoded date : UTC 2013-09-25 05:39:00
    Writing application : mkvmerge v6.1.0 (;Old Devil;) built on Mar 4 2013 09:10:42
    Writing library : libebml v1.3.0 libmatroska v1.4.0

    Video
    ID : 1
    Format : AVC
    Format/Info : Advanced Video Codec
    Format profile : High@L4.1
    Format settings, CABAC : Yes
    Format settings, ReFrames : 5 frames
    Codec ID : V_MPEG4/ISO/AVC
    Duration : 1h 24mn
    Bit rate : 2 063 Kbps
    Width : 1 024 pixels
    Height : 432 pixels
    Display aspect ratio : 2.40:1
    Frame rate : 25.000 fps
    Color space : YUV
    Chroma subsampling : 4:2:0
    Bit depth : 8 bits
    Scan type : Progressive
    Bits/(Pixel*Frame) : 0.187
    Stream size : 1.19 GiB (82%)
    Writing library : x264 core 130 r2273 b3065e6
    Encoding settings : cabac=1 / ref=5 / deblock=1:0:0 / analyse=0x3:0x113 / me=umh / subme=9 / psy=1 / psy_rd=1.00:0.00 / mixed_ref=1 / me_range=32 / chroma_me=1 / trellis=1 / 8x8dct=1 / cqm=0 / deadzone=21,11 / fast_pskip=1 / chroma_qp_offset=-2 / threads=12 / lookahead_threads=1 / sliced_threads=0 / nr=0 / decimate=1 / interlaced=0 / bluray_compat=0 / constrained_intra=0 / bframes=6 / b_pyramid=2 / b_adapt=1 / b_bias=0 / direct=1 / weightb=1 / open_gop=0 / weightp=2 / keyint=250 / keyint_min=25 / scenecut=40 / intra_refresh=0 / rc_lookahead=40 / rc=2pass / mbtree=1 / bitrate=2063 / ratetol=1.0 / qcomp=0.60 / qpmin=0 / qpmax=69 / qpstep=4 / cplxblur=20.0 / qblur=0.5 / ip_ratio=1.40 / aq=1:1.00
    Language : English
    Default : Yes
    Forced : No

    Audio #1
    ID : 2
    Format : AC-3
    Format/Info : Audio Coding 3
    Mode extension : CM (complete main)
    Format settings, Endianness : Big
    Codec ID : A_AC3
    Duration : 1h 24mn
    Bit rate mode : Constant
    Bit rate : 192 Kbps
    Channel(s) : 2 channels
    Channel positions : Front: L R
    Sampling rate : 48.0 KHz
    Bit depth : 16 bits
    Compression mode : Lossy
    Stream size : 117 MiB (8%)
    Language : Russian
    Default : Yes
    Forced : No

    Audio #2
    ID : 3
    Format : AC-3
    Format/Info : Audio Coding 3
    Mode extension : CM (complete main)
    Format settings, Endianness : Big
    Codec ID : A_AC3
    Duration : 1h 24mn
    Bit rate mode : Constant
    Bit rate : 192 Kbps
    Channel(s) : 2 channels
    Channel positions : Front: L R
    Sampling rate : 48.0 KHz
    Bit depth : 16 bits
    Compression mode : Lossy
    Stream size : 117 MiB (8%)
    Language : French
    Default : No
    Forced : No
    Скриншоты

    Размер: 1.45 GB (1552727057 Bytes)

    Безумные преподы / Les profs (2013) HDRip-AVC | Чистый звук скачать через торрент бесплатно
    загрузка...
    Рейтинг →
     (голосов: 1, оценка 5/5, голосовать можно 1 раз )

    Другие торренты по теме:

  • Безумные преподы / Les profs (2013) BDRip-AVC | Звук с TS
  • Безумные преподы / Les profs (2013) BDRip-AVC | Чистый звук скачать через торрент бесплатно
  • Безумные преподы / Les profs (2013) HDRip | Чистый звук скачать через торрент бесплатно
  • Безумные преподы / Les profs (2013) BDRip 720p | Чистый звук скачать через торрент бесплатно
  • Безумные преподы / Les profs (2013) BDRip-AVC от leonardo 59 Scarabey | Чистый звук
  • Безумные преподы / Les profs (2013) BDRip 720p от leonardo 59 Scarabey | Чистый звук
  • Безумные преподы / Les profs (2013) HDRip | Лицензия скачать через торрент бесплатно
  • Безумные преподы / Les profs (2013) BDRemux 1080p | Лицензия скачать через торрент бесплатно


    • Комментарии (0):

      Информация

      Информация

        Посетители, находящиеся в группе Гости, не могут оставлять комментарии в данной новости.

        ↓ Меню



        ↓ Опрос

        А Вы добавили сайт в закладки?
        Да
        Не


        Top 10 за месяц (Фильмы)