.
Авторизация | Регистрация
Хочешь лучшие торренты? Добавь свой email!
Добавить
» » Татуированный / The Tattooed One / Le tatou (1968) HDRip от Youtracker скачать через торрент бесплатно




    Татуированный / The Tattooed One / Le tatou (1968) HDRip от Youtracker скачать через торрент бесплатно

    Опубликовал: Админ | Дата: 27-02-2015, 11:09 | Просмотров: 394

    Татуированный / The Tattooed One / Le tatou?

    Страна: Франция, Италия
    Жанр: комедия
    Год выпуска: 1968
    Продолжительность: 01:30:04

    Перевод 1: Профессиональный (многоголосый закадровый) Film Prestige
    Перевод 2: Профессиональный (многоголосый закадровый) ОРТ
    Перевод 3: Профессиональный (многоголосый закадровый)
    Cубтитры: нет
    Оригинальная аудиодорожка: нет

    Режиссер: Дени де Ла Пательер / Denys de La Patelli?re

    В ролях: Луи де Фюнес, Жан Габен, Поль Мерси, Ив Барсак, Пьер Торнад, Жан-Пьер Даррас, Джо Уорфилд, Дональд Дж. фон Кертц, Лин Шардонне, Ибрахим Сек

    Описание: Шустрый и нечистоплотный торговец антиквариатом Фелисьен Мезере случайно видит на широкой спине позирующего художнику пожилого человека необычную татуировку. Опытный глаз пройдохи сразу определяет руку мастера — и действительно, этот рисунок когда-то сделал майору Леграну великий Модильяни.

    Фелисьен незамедлительно предлагает Леграну продать кожу со спины за любые деньги, но тот с возмущением отвергает абсурдное предложение. Но обезумевший от жадности антиквар готов на все, лишь бы заполучить в свои руки бесценный шедевр и продать его втридорога. Легран в конце концов соглашается, но в обмен на небольшую услугу. Фелисьен не раздумывая соглашается, и они отправляются в необычное путешествие…



    Качество видео: HDRip Le.Tatoue.1968.720p.WEB-DL.3xRus.Fre.Sub.HDCLUB
    Формат видео: AVI
    Видео кодек: XviD
    Аудио кодек: AC3
    Видео: 720x304 (2.37:1), 24.000 fps, XviD build 73 ~1736 kbps avg, 0.33 bit/pixel
    Аудио#1: 48 kHz, AC3, 2/0 (L,R) ch, ~192.00 kbps avg | Многоголосый закадровый, Film Prestige
    Аудио#2: 48 kHz, AC3, 2/0 (L,R) ch, ~192.00 kbps avg |Многоголосый закадровый, ОРТ
    Аудио#3: 48 kHz, AC3, 2/0 (L,R) ch, ~192.00 kbps avg | Многоголосый закадровый
    Раздача от:
    Скриншоты

    MI
    D:Мои рипыLe.Tatoue.1968.HDRip.dexter_lex.avi
    General
    Complete name : D:Мои рипыLe.Tatoue.1968.HDRip.dexter_lex.avi
    Format : AVI
    Format/Info : Audio Video Interleave
    File size : 1.47 GiB
    Duration : 1h 30mn
    Overall bit rate : 2 333 Kbps
    Writing application : VirtualDubMod 1.5.10.3 | www.virtualdub-fr.org || (build 2550/release)
    Writing library : VirtualDubMod build 2550/release
    Video #0
    ID : 0
    Format : MPEG-4 Visual
    Format profile : Advanced Simple@L5
    Format settings, BVOP : 1
    Format settings, QPel : No
    Format settings, GMC : No warppoints
    Format settings, Matrix : Custom
    Codec ID : XVID
    Codec ID/Hint : XviD
    Duration : 1h 30mn
    Bit rate : 1 738 Kbps
    Width : 720 pixels
    Height : 304 pixels
    Display aspect ratio : 2.35:1
    Frame rate : 24.000 fps
    Color space : YUV
    Chroma subsampling : 4:2:0
    Bit depth : 8 bits
    Scan type : Progressive
    Compression mode : Lossy
    Bits/(Pixel*Frame) : 0.331
    Stream size : 1.09 GiB (75%)
    Writing library : XviD 73
    Audio #1
    ID : 1
    Format : AC-3
    Format/Info : Audio Coding 3
    Format profile : Dolby Digital
    Mode extension : CM (complete main)
    Codec ID : 2000
    Duration : 1h 30mn
    Bit rate mode : Constant
    Bit rate : 192 Kbps
    Channel(s) : 2 channels
    Channel positions : Front: L R
    Sampling rate : 48.0 KHz
    Bit depth : 16 bits
    Compression mode : Lossy
    Stream size : 124 MiB (8%)
    Alignment : Split accross interleaves
    Interleave, duration : 42 ms (1.00 video frame)
    Interleave, preload duration : 500 ms
    Audio #2
    ID : 2
    Format : AC-3
    Format/Info : Audio Coding 3
    Format profile : Dolby Digital
    Mode extension : CM (complete main)
    Codec ID : 2000
    Duration : 1h 30mn
    Bit rate mode : Constant
    Bit rate : 192 Kbps
    Channel(s) : 2 channels
    Channel positions : Front: L R
    Sampling rate : 48.0 KHz
    Bit depth : 16 bits
    Compression mode : Lossy
    Stream size : 124 MiB (8%)
    Alignment : Split accross interleaves
    Interleave, duration : 42 ms (1.00 video frame)
    Interleave, preload duration : 500 ms
    Audio #3
    ID : 3
    Format : AC-3
    Format/Info : Audio Coding 3
    Format profile : Dolby Digital
    Mode extension : CM (complete main)
    Codec ID : 2000
    Duration : 1h 30mn
    Bit rate mode : Constant
    Bit rate : 192 Kbps
    Channel(s) : 2 channels
    Channel positions : Front: L R
    Sampling rate : 48.0 KHz
    Bit depth : 16 bits
    Compression mode : Lossy
    Stream size : 124 MiB (8%)
    Alignment : Split accross interleaves
    Interleave, duration : 42 ms (1.00 video frame)
    Interleave, preload duration : 500 ms


    Размер: 1.47 GB (1575884800 Bytes)

    Татуированный / The Tattooed One / Le tatou (1968) HDRip от Youtracker скачать через торрент бесплатно
    загрузка...
    Рейтинг →
     (голосов: 1, оценка 3/5, голосовать можно 1 раз )

    Другие торренты по теме:

  • Татуированный / Le tatoue (1968) BDRip-AVC от Тorrent-Хzona
  • Ирен Гус - Татуированный торс / Irene Huss - Tatuerad torso (2007) DVDRip от Brazzass


    • Комментарии (0):

      Информация

      Информация

        Посетители, находящиеся в группе Гости, не могут оставлять комментарии в данной новости.

        ↓ Меню



        ↓ Опрос

        А Вы добавили сайт в закладки?
        Да
        Не


        Top 10 за месяц (Фильмы)