.
Авторизация | Регистрация
Хочешь лучшие торренты? Добавь свой email!
Добавить
» » Иллюзия обмана / Now You See Me (2013) HDRip от Youtracker | Лицензия скачать торрент бесплатно




    Иллюзия обмана / Now You See Me (2013) HDRip от Youtracker | Лицензия скачать торрент бесплатно

    Опубликовал: Админ | Дата: 27-02-2015, 11:09 | Просмотров: 454

    Иллюзия обмана / Now You See Me

    Год выпуска: 2013
    Страна: Франция, США
    Жанр: триллер, криминал, детектив
    Продолжительность: 01:55:21
    Перевод: Профессиональный (полное дублирование) - Лицензия
    Русские субтитры: нет

    Режиссер: Луи Летерье / Louis Leterrier

    В ролях: Джесси Айзенберг, Марк Руффало, Вуди Харрельсон, Мелани Лоран, Айла Фишер, Дэйв Франко, Майкл Кейн, Морган Фриман, Майкл Келли, Коммон,

    Описание: Команда лучших иллюзионистов мира проворачивает дерзкие ограбления прямо во время своих шоу, играя в кошки-мышки с агентами ФБР.



    Качество: НDRip BDRip 1080p
    Формат: AVI
    Видео кодек: XviD
    Аудио кодек: AC3
    Видео: 720x304 (2.37:1), 23.976 fps, XviD build 73 ~1428 kbps avg, 0.27 bit/pixel
    Аудио: 48 kHz, AC3 Dolby Digital, 3/2 (L,C,R,l,r) LFE ch, ~384 kbps
    Раздача от:
    Скриншоты

    MI
    D:Мои рипыNow You See Me.2013.HDRip.dexter_lex.avi
    General
    Complete name : D:Мои рипыNow You See Me.2013.HDRip.dexter_lex.avi
    Format : AVI
    Format/Info : Audio Video Interleave
    File size : 1.47 GiB
    Duration : 1h 55mn
    Overall bit rate : 1 822 Kbps
    Writing application : VirtualDubMod 1.5.10.3 | www.virtualdub-fr.org || (build 2550/release)
    Writing library : VirtualDubMod build 2550/release
    Video #0
    ID : 0
    Format : MPEG-4 Visual
    Format profile : Advanced Simple@L5
    Format settings, BVOP : 1
    Format settings, QPel : No
    Format settings, GMC : No warppoints
    Format settings, Matrix : Custom
    Codec ID : XVID
    Codec ID/Hint : XviD
    Duration : 1h 55mn
    Bit rate : 1 429 Kbps
    Width : 720 pixels
    Height : 304 pixels
    Display aspect ratio : 2.35:1
    Frame rate : 23.976 fps
    Color space : YUV
    Chroma subsampling : 4:2:0
    Bit depth : 8 bits
    Scan type : Progressive
    Compression mode : Lossy
    Bits/(Pixel*Frame) : 0.272
    Stream size : 1.15 GiB (78%)
    Writing library : XviD 73
    Audio #1
    ID : 1
    Format : AC-3
    Format/Info : Audio Coding 3
    Mode extension : CM (complete main)
    Codec ID : 2000
    Duration : 1h 55mn
    Bit rate mode : Constant
    Bit rate : 384 Kbps
    Channel(s) : 6 channels
    Channel positions : Front: L C R, Side: L R, LFE
    Sampling rate : 48.0 KHz
    Bit depth : 16 bits
    Compression mode : Lossy
    Stream size : 317 MiB (21%)
    Alignment : Split accross interleaves
    Interleave, duration : 42 ms (1.00 video frame)
    Interleave, preload duration : 500 ms

    Размер: 1.47 GB (1576433664 Bytes)
    загрузка...
    Рейтинг →
     (голосов: 1, оценка 5/5, голосовать можно 1 раз )

    Другие торренты по теме:

  • Иллюзия обмана / Now You See Me (2012) HDRip | D | Трейлер
  • Иллюзия обмана / Now You See Me (2013) HDRip | Звук с TS
  • Иллюзия обмана / Now You See Me (2013) BDRip 1080p | iTunes
  • Иллюзия обмана / Now You See Me (2013) Blu-Ray Remux 1080p | iTunes
  • Иллюзия обмана / Now You See Me (2013) HDRip | iTunes
  • Иллюзия обмана / Now You See Me (2013) BDRip 720p от INTERCINEMA | iTunes
  • Иллюзия обмана / Now You See Me (2013) BDRip-AVC от leonardo 59 Scarabey | iTunes Russia
  • Иллюзия обмана / Now You See Me (2013) HDRip от -=HD-NET=- | КПК | iTunes Russia


    • Комментарии (0):

      Информация

      Информация

        Посетители, находящиеся в группе Гости, не могут оставлять комментарии в данной новости.

        ↓ Меню



        ↓ Опрос

        А Вы добавили сайт в закладки?
        Да
        Не


        Top 10 за месяц (Фильмы)