.
Авторизация | Регистрация
Хочешь лучшие торренты? Добавь свой email!
Добавить
» » После нашей эры / After Earth (2013) BDRip-AVC | D | iTunes Russia скачать торрент бесплатно




    После нашей эры / After Earth (2013) BDRip-AVC | D | iTunes Russia скачать торрент бесплатно

    Опубликовал: Админ | Дата: 27-02-2015, 11:09 | Просмотров: 346



    Информация о фильме
    Название: После нашей эры
    Оригинальное название: After Earth
    Год выхода: 2013
    Жанр: Фантастика, приключения, боевик
    Режиссер: М. Найт Шьямалан
    В ролях: Уилл Смит, Джейден Смит, Зои Кравиц, Изабель Фурман, Кристофер Хивджу, Софи Оконедо, Дэвид Денман, Гленн Моршауэр, Линкольн Льюис

    О фильме:
    События разворачиваются через тысячу лет после катастрофы, вынудившей человечество покинуть Землю. Новым домом становится планета под названием Нова Прайм. Легендарный генерал Сайфер Рейдж возвращается с очередного боевого задания в семью, которая раньше обходилась без его родительского внимания, чтобы стать отцом своему 13-летнему сыну Китаю. Во время астероидной бури летательный аппарат с папой и сыном на борту терпит крушение, падая на незнакомую и опасную Землю. И пока Рейдж-старший на последнем дыхании лежит среди обломков своего корабля, сын должен пересечь враждебный ландшафт, чтобы запустить их спасательный маячок. Ни о чем большем юноша в своей жизни не мечтал: быть солдатом, как отец, — его заветное желание. Сегодня у него есть шанс проявить себя.

    Официальный сайт

    Страна: США
    Студия: Blinding Edge Pictures, Columbia Pictures, Overbrook Entertainment
    Продолжительность: 01:40:02
    Перевод: Дублированный iTunes

    Файл
    Кодек: MPEG-4 AVC
    Качество: BDRip (576p)
    Видео: 1024x432 at 23.976 fps, 2.35:1, x264@L3.1, crf, ~2352 Kbps avg
    Звук:
    Аудио#1: Russian: 48 kHz, AC3, 3/2 (L,C,R,l,r) LFE ch, 16-bit, ~384.00 kbps avg
    Аудио#2: English: 48 kHz, AC3, 3/2 (L,C,R,l,r) LFE ch, 16-bit, ~384.00 kbps avg
    Субтитры: Русские (форсированные), английские

    Семпл

    Скриншоты

    МедиаИнфо
    General
    Unique ID : 182232869422664220476393386869962983507 (0x8918C625572F4BEFB09AC2B7FAE24853)
    Complete name : After.Earth.2013.D.BDRip.AVC.mkv
    Format : Matroska
    Format version : Version 2
    File size : 2.18 GiB
    Duration : 1h 40mn
    Overall bit rate : 3 122 Kbps
    Movie name : После нашей эры (2013)
    Encoded date : UTC 2013-09-21 22:25:35
    Writing application : mkvmerge v6.4.1 (;Omega Point;) built on Sep 16 2013 22:05:10
    Writing library : libebml v1.3.0 libmatroska v1.4.1

    Video
    ID : 1
    Format : AVC
    Format/Info : Advanced Video Codec
    Format profile : High@L3.1
    Format settings, CABAC : Yes
    Format settings, ReFrames : 5 frames
    Codec ID : V_MPEG4/ISO/AVC
    Duration : 1h 40mn
    Bit rate : 2 352 Kbps
    Width : 1 024 pixels
    Height : 432 pixels
    Display aspect ratio : 2.35:1
    Original display aspect ratio : 2.35:1
    Frame rate mode : Constant
    Frame rate : 23.976 fps
    Color space : YUV
    Chroma subsampling : 4:2:0
    Bit depth : 8 bits
    Scan type : Progressive
    Bits/(Pixel*Frame) : 0.222
    Stream size : 1.60 GiB (73%)
    Title : After Earth (2013)
    Writing library : x264 core 138 r2359 704 48 3f879a0 tMod 8-bit@all X86_64
    Encoding settings : cabac=1 / ref=5 / deblock=1:0:0 / analyse=0x3:0x133 / me=umh / subme=10 / psy=1 / fade_compensate=0.00 / psy_rd=1.00:0.00 / mixed_ref=1 / me_range=24 / chroma_me=1 / trellis=2 / 8x8dct=1 / cqm=0 / deadzone=21,11 / fast_pskip=1 / chroma_qp_offset=-2 / threads=9 / lookahead_threads=1 / sliced_threads=0 / nr=0 / decimate=0 / interlaced=0 / bluray_compat=0 / constrained_intra=0 / fgo=0 / bframes=6 / b_pyramid=2 / b_adapt=2 / b_bias=0 / direct=3 / weightb=1 / open_gop=0 / weightp=2 / keyint=250 / keyint_min=25 / scenecut=40 / intra_refresh=0 / rc_lookahead=60 / rc=2pass / mbtree=1 / bitrate=2352 / ratetol=1.0 / qcomp=0.60 / qpmin=0:0:0 / qpmax=69:69:69 / qpstep=4 / cplxblur=20.0 / qblur=0.5 / ip_ratio=1.40 / aq=1:1.00 / aq-sensitivity=10.00 / aq-factor=1.00:1.00:1.00 / aq2=0 / aq3=0
    Language : English
    Default : Yes
    Forced : No

    Audio #1
    ID : 2
    Format : AC-3
    Format/Info : Audio Coding 3
    Mode extension : CM (complete main)
    Format settings, Endianness : Big
    Codec ID : A_AC3
    Duration : 1h 40mn
    Bit rate mode : Constant
    Bit rate : 384 Kbps
    Channel(s) : 6 channels
    Channel positions : Front: L C R, Side: L R, LFE
    Sampling rate : 48.0 KHz
    Bit depth : 16 bits
    Compression mode : Lossy
    Stream size : 275 MiB (12%)
    Title : DUB iTunes
    Language : Russian
    Default : Yes
    Forced : No

    Audio #2
    ID : 3
    Format : AC-3
    Format/Info : Audio Coding 3
    Mode extension : CM (complete main)
    Format settings, Endianness : Big
    Codec ID : A_AC3
    Duration : 1h 40mn
    Bit rate mode : Constant
    Bit rate : 384 Kbps
    Channel(s) : 6 channels
    Channel positions : Front: L C R, Side: L R, LFE
    Sampling rate : 48.0 KHz
    Bit depth : 16 bits
    Compression mode : Lossy
    Stream size : 275 MiB (12%)
    Title : Original
    Language : English
    Default : No
    Forced : No

    Text #1
    ID : 4
    Format : UTF-8
    Codec ID : S_TEXT/UTF8
    Codec ID/Info : UTF-8 Plain Text
    Title : Forced
    Language : Russian
    Default : Yes
    Forced : Yes

    Text #2
    ID : 5
    Format : UTF-8
    Codec ID : S_TEXT/UTF8
    Codec ID/Info : UTF-8 Plain Text
    Language : English
    Default : No
    Forced : No

    Menu
    00:00:00.000 : en:00:00:00
    00:08:51.000 : en:00:08:51
    00:15:34.000 : en:00:15:34
    00:21:32.000 : en:00:21:32
    00:30:47.000 : en:00:30:47
    00:36:42.000 : en:00:36:42
    00:41:10.000 : en:00:41:10
    00:47:02.000 : en:00:47:02
    00:52:32.000 : en:00:52:32
    00:59:44.000 : en:00:59:44
    01:05:20.000 : en:01:05:20
    01:11:04.000 : en:01:11:04
    01:15:41.000 : en:01:15:41
    01:20:11.000 : en:01:20:11
    01:24:32.000 : en:01:24:32
    01:29:51.000 : en:01:29:51



    Релиз от:
    Размер: 2.18 GB (2342659660 Bytes)
    загрузка...
    Рейтинг →
     (голосов: 1, оценка 3/5, голосовать можно 1 раз )

    Другие торренты по теме:

  • После нашей эры / After Earth (2013) HDRip 1080p | Трейлер
  • OST - После нашей эры / After Earth (2013) MP3
  • После нашей эры / After Earth (2013) WEB-DLRip | iTunes Russia
  • После нашей эры / After Earth (2013) WEB-DL 720p | iTunes
  • После нашей эры / After Earth (2013) WEB-DLRip от Youtracker | D | iTunes Russia
  • После нашей эры / After Earth (2013) WEB-DLRip-AVC от Youtracker | D | iTunes Russia
  • После нашей эры / After Earth (2013) WEB-DLRip от Scarabey | iTunes Russia
  • После нашей эры / After Earth (2013) WEB-DLRip от Dalemake | iTunes


    • Комментарии (0):

      Информация

      Информация

        Посетители, находящиеся в группе Гости, не могут оставлять комментарии в данной новости.

        ↓ Меню



        ↓ Опрос

        А Вы добавили сайт в закладки?
        Да
        Не


        Top 10 за месяц (Фильмы)