.
Авторизация | Регистрация
Хочешь лучшие торренты? Добавь свой email!
Добавить
» » Подростковый секс / Sex and the Teenage Mind (2002) HDTV 1080i | P скачать торрент бесплатно




    Подростковый секс / Sex and the Teenage Mind (2002) HDTV 1080i | P скачать торрент бесплатно

    Опубликовал: Админ | Дата: 27-02-2015, 11:09 | Просмотров: 439



    Название: Подростковый секс
    Оригинальное название: Sex and the Teenage Mind
    Год выпуска: 2002
    Жанр: Комедия
    Режиссер: Дон Голд
    В ролях: Элисон Лэндж, Ричард Карн, Джей Майкл Фергюсон, Майкл Боуэр, Дэника МакКеллар, Джоди Флейшер, Джордан Бэлфи, Джоди Харт, Бо Кларк

    Описание: Нелегко быть подростком, когда бушуют гормоны, близится выпускной бал, а у тебя все еще нет девушки. Отец мягко намекает на то, что ты гей, а мама как назло случайно застает вас с другом и с бананом, на который надет презерватив... У Вирджила все, как у обычных ботаников - парочка порно-журналов под кроватью и влажные сны о самой красивой девчонке в школе. Первые сны, первые мечты, первая любовь, первый презерватив, первая драка, первый облом, первый секс... Все это еще только впереди.

    Выпущено: США, Goldade Productions
    Продолжительность: 01:31:13
    Перевод: Профессиональный многоголосый



    Качество: HDTV 1080i
    Видео: MPEG-2, 16.5 Мбит/с, 1920x1080
    Аудио rus: AC3, 2 ch, 192 Кбит/с
    Аудио eng: AC3, 2 ch, 384 Кбит/с

    Семпл

    Инфо
    Complete name : E:Раздачи.Podrostkovyi_sex_1080i_HDTV_by_max1wq.mkv
    Format : Matroska
    Format version : Version 2
    File size : 11.1 GiB
    Duration : 1h 31mn
    Overall bit rate mode : Variable
    Overall bit rate : 17.4 Mbps
    Encoded date : UTC 2013-09-15 06:22:07
    Writing application : mkvmerge v5.2.1 (;A Far Off Place;) built on Jan 2 2012 23:21:10
    Writing library : libebml v1.2.3 libmatroska v1.3.0

    Video
    ID : 1
    Format : MPEG Video
    Format version : Version 2
    Format profile : Main@High
    Format settings, BVOP : No
    Format settings, Matrix : Custom
    Codec ID : V_MPEG2
    Codec ID/Info : MPEG 1 or 2 Video
    Duration : 1h 31mn
    Bit rate mode : Variable
    Bit rate : 16.5 Mbps
    Maximum bit rate : 18.0 Mbps
    Width : 1 920 pixels
    Height : 1 080 pixels
    Display aspect ratio : 16:9
    Frame rate mode : Constant
    Frame rate : 29.970 fps
    Color space : YUV
    Chroma subsampling : 4:2:0
    Bit depth : 8 bits
    Scan type : Interlaced
    Scan order : Top Field First
    Compression mode : Lossy
    Bits/(Pixel*Frame) : 0.265
    Time code of first frame : 00:00:00;00
    Time code source : Group of pictures t_head
    Stream size : 10.5 GiB (95%)
    Default : Yes
    Forced : No

    Audio #1
    ID : 2
    Format : AC-3
    Format/Info : Audio Coding 3
    Mode extension : CM (complete main)
    Format settings, Endianness : Big
    Codec ID : A_AC3
    Duration : 1h 31mn
    Bit rate mode : Constant
    Bit rate : 192 Kbps
    Channel(s) : 2 channels
    Channel positions : Front: L R
    Sampling rate : 48.0 KHz
    Bit depth : 16 bits
    Compression mode : Lossy
    Stream size : 125 MiB (1%)
    Language : Russian
    Default : Yes
    Forced : No

    Audio #2
    ID : 3
    Format : AC-3
    Format/Info : Audio Coding 3
    Mode extension : CM (complete main)
    Format settings, Endianness : Big
    Codec ID : A_AC3
    Duration : 1h 31mn
    Bit rate mode : Constant
    Bit rate : 384 Kbps
    Channel(s) : 2 channels
    Channel positions : Front: L R
    Sampling rate : 48.0 KHz
    Bit depth : 16 bits
    Compression mode : Lossy
    Stream size : 251 MiB (2%)
    Language : English
    Default : No
    Forced : No
    Скриншоты


    Размер: 11.09 GB (11912103601 Bytes)
    загрузка...
    Рейтинг →
     (голосов: 1, оценка 4/5, голосовать можно 1 раз )

    Другие торренты по теме:

  • Подростковый секс / Sex and the Teenage Mind (2002) DVDRip
  • Подростковый секс / Sex and the Teenage Mind (2002) HDTVRip-AVC от ExKinoRay | P


    • Комментарии (0):

      Информация

      Информация

        Посетители, находящиеся в группе Гости, не могут оставлять комментарии в данной новости.

        ↓ Меню



        ↓ Опрос

        А Вы добавили сайт в закладки?
        Да
        Не


        Top 10 за месяц (Фильмы)