.
Авторизация | Регистрация
Хочешь лучшие торренты? Добавь свой email!
Добавить
» » Вангелия (Ванга) (2013) HDTV 1080i скачать через торрент бесплатно




    Вангелия (Ванга) (2013) HDTV 1080i скачать через торрент бесплатно

    Опубликовал: Админ | Дата: 27-02-2015, 11:09 | Просмотров: 440



    Оригинальное название: Вангелия (Ванга)
    Год выпуска: 2013
    Жанр: Драма, биография
    Режиссер: Сергей Борчуков
    В ролях: Елена Яковлева, Ирина Рахманова, Наталья Николаева, Дарья Отрошко, Кристина Пакарина, Карина Андоленко, Таисия Вилкова, Евгений Князев, Анатолий Белый, Даниил Белых, Александра Платонова, Антон Макарский, Александр Андриенко, Екатерина Молоховская, Света Цуба, Вера Цуба, Макс Бирюков

    Описание: Жизнь и предсказания знаменитой болгарской ясновидящей Ванги (Вангелии Гущеровой) в последние годы вызвали новую волну массового зрительского интереса. Вангелия - первая и на сегодняшний день единственная художественная картина о предсказательнице. В картине вся жизнь Ванги от рождения до смерти. Все ключевые моменты ее биографии фактически отражают важные события бурного ХХ века. В сценарии фильма использованы воспоминания реальных людей, в том числе родственников Ванги. Авторы Владимир и Татьяна Сотниковы ввели в фильм и те моменты биографии Ванги, которые стали легендами. Так, например, не сохранилось документальных свидетельств визита к Ванге Гитлера в 1943 году. Однако существует немало устных свидетельств того, что такая встреча происходила. Интерес Гитлера к мистике, создание по его приказу специальной эзотерической организации Анненербе - тому подтверждение. Предсказание, которое сделала Ванга Гитлеру, является одним из ярких моментов фильма – так же, как и предсказание точной даты смерти Сталина, за которое она была заключена в тюрьму. Все же это не документальное, а художественное кино,- говорит режиссер фильма Сергей Барчуков,- В первую очередь это фильм о человеке. У Ванги была тяжелая жизнь- она прожила с закрытыми глазами 75 лет! Люди шли к ней со своей болью. А она понимала, что не все, что знаешь, стоит рассказывать: чтобы не обидеть, не убить, не покалечить словом.

    Выпущено: Беларусь, Болгария, Россия
    Продолжительность: 4 х ~ 00:52:00
    Язык: Русский




    Качество: HDTV 1080i
    Видео: AVC, ~ 7900 Кбит/с, 1920x1080
    Аудио rus: MP2, 2 ch, 192 Кбит/с

    Семпл

    Инфо
    Полное имя : K:Вангелия (2013, Сериал, Биографи, Драма, HDTV 1080i) (MYDIMKA).01 серия.ts
    Формат : MPEG-TS
    Размер файла : 3,08 Гбайт
    Продолжительность : 51 м.
    Режим общего битрейта : Переменный
    Общий поток : 8475 Кбит/сек

    Видео
    Идентификатор : 2931 (0xB73)
    Идентификатор меню : 1 (0x1)
    Формат : AVC
    Формат/Информация : Advanced Video Codec
    Профиль формата : High@L4.0
    Параметр CABAC формата : Да
    Параметр ReFrames формата : 3 кадра
    Идентификатор кодека : 27
    Продолжительность : 51 м.
    Битрейт : 7863 Кбит/сек
    Ширина : 1920 пикселей
    Высота : 1080 пикселей
    Соотношение сторон : 16:9
    Частота кадров : 25,000 кадров/сек
    Цветовое пространство : YUV
    Субдискретизация насыщенности : 4:2:0
    Битовая глубина : 8 бит
    Тип развёртки : MBAFF
    Бит/(Пиксели*Кадры) : 0.152
    Размер потока : 2,85 Гбайт (93%)

    Аудио
    Идентификатор : 2932 (0xB74)
    Идентификатор меню : 1 (0x1)
    Формат : MPEG Audio
    Версия формата : Version 1
    Профиль формата : Layer 2
    Идентификатор кодека : 3
    Продолжительность : 51 м.
    Вид битрейта : Постоянный
    Битрейт : 192 Кбит/сек
    Каналы : 2 канала
    Частота : 48,0 КГц
    Метод сжатия : С потерями
    Размер потока : 71,4 Мбайт (2%)
    Язык : Russian

    Скриншоты

    Внимание! Раздача ведётся путём добавления новых серий!

    Внимание! Раздача ведётся путём добавления новых серий; при каждом добавлении создfётся новый торрент. Чтобы начать докачку новой серии, пользователям необходимо сделать следующее: (1) остановить скачивание, (2) удалить старый торрент у себя из клиента (старые серии удалять не надо), (3) скачать новый торрент и запустить его у себя в клиенте вместо старого, при этом указать клиенту путь в старую папку куда и должно происходить скачивание новых серий.

    Ваш клиент при этом должен произвести хеширование (проверку) старой папки (если не производит сам - помогите ему сделать это), и будет докачивать только те серии которых у вас ещё нет. Старые серии при этом не удаляются, а продолжают раздаваться!

    Eсли вы уже удалили старые серии, то предотвратить повторную закачку старых серий можно, отжав галочку в соответсвующих местах при запуске нового торрента.

    Релиз от:
    Размер: 11.45 GB (12296215200 Bytes)
    загрузка...
    Рейтинг →
     (голосов: 1, оценка 4/5, голосовать можно 1 раз )

    Другие торренты по теме:

  • Вангелия (Ванга) (2013) SATRip
  • Вангелия / Ванга (2013) HDTVRip от Files-x
  • Вангелия (Ванга) (2013) HDTVRip 720p скачать через торрент бесплатно
  • Вангелия / Ванга (2013) SATRip скачать через торрент бесплатно
  • Вангелия (Ванга) (2013) WEB-DLRip-AVC от ExKinoRay
  • Вангелия (Ванга) (1-12 серии из 12) / 2013 / РУ / WEB-DLRip (1080p)


    • Комментарии (0):

      Информация

      Информация

        Посетители, находящиеся в группе Гости, не могут оставлять комментарии в данной новости.

        ↓ Меню



        ↓ Опрос

        А Вы добавили сайт в закладки?
        Да
        Не


        Top 10 за месяц (Фильмы)