.
Авторизация | Регистрация
Хочешь лучшие торренты? Добавь свой email!
Добавить
» » Мальчишник: Часть III / The Hangover Part III (2013) | BDRip-720p | D скачать бесплатно через торрент




    Мальчишник: Часть III / The Hangover Part III (2013) | BDRip-720p | D скачать бесплатно через торрент

    Опубликовал: Админ | Дата: 27-02-2015, 11:09 | Просмотров: 462



    Название: Мальчишник: Часть III
    Оригинальное название: The Hangover Part III
    Год выпуска: 2013
    Жанр: Комедия
    Режиссер: Тодд Филлипс
    В ролях: Брэдли Купер, Мелисса МакКарти, Джон Гудмен, Джейми Чунг, Зак Галифианакис, Джастин Барта, Хезер Грэм, Эд Хелмс, Кен Жонг, Александра Баррези

    Описание: В этот раз никакой свадьбы. Никакого мальчишника. Казалось бы, что могло пойти не так? Но когда Волчья стая оказывается на дороге, все ставки снимаются.

    Выпущено: США, Green Hat Films, Legendary Pictures
    Продолжительность: 01:40:06
    Перевод: Дублированный iTunes



    Качество: BDRip-720p
    Видео: MPEG-4 AVC, 6362 Кбит/с, 1280x534
    Аудио rus: AC3, 6 ch, 384 Кбит/с
    Аудио ukr: AC3, 2 ch, 192 Кбит/с
    Аудио eng: DTS, 6 ch, 1509 Кбит/с
    Субтитры: Русские, английские, украинские

    Семпл

    Инфо
    Полное имя : K:Malchishnik.3.2013.D.BDRip.720p.mkv
    Формат : Matroska
    Версия формата : Version 4 / Version 2
    Размер файла : 5,91 Гбайт
    Продолжительность : 1 ч. 40 м.
    Общий поток : 8444 Кбит/сек
    Дата кодирования : UTC 2013-09-21 10:06:47
    Программа кодирования : mkvmerge v6.3.0 (;You can;t stop me!;) built on Jun 28 2013 20:09:41
    Библиотека кодирования : libebml v1.3.0 libmatroska v1.4.0

    Видео
    Идентификатор : 1
    Формат : AVC
    Формат/Информация : Advanced Video Codec
    Профиль формата : High@L4.1
    Параметр CABAC формата : Да
    Параметр ReFrames формата : 11 кадров
    Идентификатор кодека : V_MPEG4/ISO/AVC
    Продолжительность : 1 ч. 40 м.
    Битрейт : 6362 Кбит/сек
    Ширина : 1280 пикселей
    Высота : 534 пикселя
    Соотношение сторон : 2,40:1
    Режим частоты кадров : Постоянный
    Частота кадров : 23,976 кадра/сек
    Цветовое пространство : YUV
    Субдискретизация насыщенности : 4:2:0
    Битовая глубина : 8 бит
    Тип развёртки : Прогрессивная
    Бит/(Пиксели*Кадры) : 0.388
    Размер потока : 4,33 Гбайт (73%)
    Заголовок : The.Hangover.Part.III.2013.BluRay.720p.DTS.x264-CHD
    Библиотека кодирования : x264 core 135 r2345 f0c1c53
    Настройки программы : cabac=1 / ref=11 / deblock=1:-3:-3 / analyse=0x3:0x113 / me=umh / subme=10 / psy=1 / psy_rd=1.00:0.05 / mixed_ref=1 / me_range=32 / chroma_me=1 / trellis=2 / 8x8dct=1 / cqm=0 / deadzone=21,11 / fast_pskip=0 / chroma_qp_offset=-2 / threads=8 / lookahead_threads=1 / sliced_threads=0 / nr=0 / decimate=1 / interlaced=0 / bluray_compat=0 / constrained_intra=0 / bframes=5 / b_pyramid=2 / b_adapt=2 / b_bias=0 / direct=3 / weightb=1 / open_gop=0 / weightp=2 / keyint=250 / keyint_min=23 / scenecut=40 / intra_refresh=0 / rc=2pass / mbtree=0 / bitrate=6362 / ratetol=1.0 / qcomp=0.70 / qpmin=0 / qpmax=69 / qpstep=4 / cplxblur=20.0 / qblur=0.5 / ip_ratio=1.40 / pb_ratio=1.30 / aq=2:0.90
    Язык : English
    Default : Да
    Forced : Да

    Аудио #1
    Идентификатор : 2
    Формат : AC-3
    Формат/Информация : Audio Coding 3
    Расширение режима : CM (complete main)
    Параметр Endianness формата : Big
    Идентификатор кодека : A_AC3
    Продолжительность : 1 ч. 40 м.
    Вид битрейта : Постоянный
    Битрейт : 384 Кбит/сек
    Каналы : 6 каналов
    Расположение каналов : Front: L C R, Side: L R, LFE
    Частота : 48,0 КГц
    Битовая глубина : 16 бит
    Метод сжатия : С потерями
    Размер потока : 275 Мбайт (5%)
    Заголовок : DD 5.1 @ 384 kbps - Dub, iTunes
    Язык : Russian
    Default : Да
    Forced : Да

    Аудио #2
    Идентификатор : 3
    Формат : AC-3
    Формат/Информация : Audio Coding 3
    Расширение режима : CM (complete main)
    Параметр Endianness формата : Big
    Идентификатор кодека : A_AC3
    Продолжительность : 1 ч. 40 м.
    Вид битрейта : Постоянный
    Битрейт : 192 Кбит/сек
    Каналы : 2 канала
    Расположение каналов : Front: L R
    Частота : 48,0 КГц
    Битовая глубина : 16 бит
    Метод сжатия : С потерями
    Размер потока : 138 Мбайт (2%)
    Заголовок : DD 2.0 @ 192 kbps - Dub, iTunes
    Язык : Ukrainian
    Default : Нет
    Forced : Нет

    Аудио #3
    Идентификатор : 4
    Формат : DTS
    Формат/Информация : Digital Theater Systems
    Режим : 16
    Параметр Endianness формата : Big
    Идентификатор кодека : A_DTS
    Продолжительность : 1 ч. 40 м.
    Вид битрейта : Постоянный
    Битрейт : 1509 Кбит/сек
    Каналы : 6 каналов
    Расположение каналов : Front: L C R, Side: L R, LFE
    Частота : 48,0 КГц
    Битовая глубина : 24 бит
    Метод сжатия : С потерями
    Размер потока : 1,06 Гбайт (18%)
    Заголовок : dts 5.1 1536kbps
    Язык : English
    Default : Нет
    Forced : Нет

    Текст #1
    Идентификатор : 5
    Формат : UTF-8
    Идентификатор кодека : S_TEXT/UTF8
    Идентификатор кодека/Информация : UTF-8 Plain Text
    Заголовок : Forced
    Язык : Russian
    Default : Нет
    Forced : Нет

    Текст #2
    Идентификатор : 6
    Формат : UTF-8
    Идентификатор кодека : S_TEXT/UTF8
    Идентификатор кодека/Информация : UTF-8 Plain Text
    Заголовок : Full
    Язык : Russian
    Default : Нет
    Forced : Нет

    Текст #3
    Идентификатор : 7
    Формат : UTF-8
    Идентификатор кодека : S_TEXT/UTF8
    Идентификатор кодека/Информация : UTF-8 Plain Text
    Заголовок : Forced
    Язык : Ukrainian
    Default : Нет
    Forced : Нет

    Текст #4
    Идентификатор : 8
    Формат : UTF-8
    Идентификатор кодека : S_TEXT/UTF8
    Идентификатор кодека/Информация : UTF-8 Plain Text
    Заголовок : Full
    Язык : Ukrainian
    Default : Нет
    Forced : Нет

    Текст #5
    Идентификатор : 9
    Формат : UTF-8
    Идентификатор кодека : S_TEXT/UTF8
    Идентификатор кодека/Информация : UTF-8 Plain Text
    Язык : English
    Default : Нет
    Forced : Нет


    Скриншоты


    Размер: 5.91 GB (6342750096 Bytes)
    загрузка...
    Рейтинг →
     (голосов: 1, оценка 5/5, голосовать можно 1 раз )

    Другие торренты по теме:

  • Мальчишник: Часть III / The Hangover Part III (2013) CamRip
  • Мальчишник: Часть III / The Hangover Part III (2013) DVDRip | Гоблин
  • Мальчишник: Часть III / The Hangover Part III (2013) DVDRip | Звук с CAMRip
  • Мальчишник: Часть III / The Hangover Part III (2013) WEB-DLRip | iTunes Russia
  • Мальчишник: Часть III / The Hangover Part III (2013) WEB-DL 720p | iTunes Russia
  • Мальчишник: Часть III / The Hangover Part III (2013) BDRip-AVC от MediaClub | D | iTunes Russia скачать бесплатно через торрент
  • Мальчишник: Часть III / The Hangover Part III (2013) WEB-DLRip-AVC от Youtracker | D | iTunes Russia скачать бесплатно через торрент
  • Мальчишник: Часть III / The Hangover Part III (2013) WEB-DLRip от Youtracker | D | iTunes Russia скачать бесплатно через торрент


    • Комментарии (0):

      Информация

      Информация

        Посетители, находящиеся в группе Гости, не могут оставлять комментарии в данной новости.

        ↓ Меню



        ↓ Опрос

        А Вы добавили сайт в закладки?
        Да
        Не


        Top 10 за месяц (Фильмы)