.
Авторизация | Регистрация
Хочешь лучшие торренты? Добавь свой email!
Добавить
» » После нашей эры / After Earth (2013) BDRip 1080p | D скачать бесплатно через торрент




    После нашей эры / After Earth (2013) BDRip 1080p | D скачать бесплатно через торрент

    Опубликовал: Админ | Дата: 27-02-2015, 11:09 | Просмотров: 284



    Название: После нашей эры
    Оригинальное название: After Earth
    Год выпуска: 2013
    Жанр: Фантастика, приключения, боевик
    Режиссер: М. Найт Шьямалан
    В ролях: Уилл Смит, Джейден Смит, Зои Кравиц, Изабель Фурман, Кристофер Хивджу, Софи Оконедо, Дэвид Денман, Гленн Моршауэр, Линкольн Льюис

    Описание: События разворачиваются через тысячу лет после катастрофы, вынудившей человечество покинуть Землю. Новым домом становится планета под названием Нова Прайм. Легендарный генерал Сайфер Рейдж возвращается с очередного боевого задания в семью, которая раньше обходилась без его родительского внимания, чтобы стать отцом своему 13-летнему сыну Китаю. Во время астероидной бури летательный аппарат с папой и сыном на борту терпит крушение, падая на незнакомую и опасную Землю. И пока Рейдж-старший на последнем дыхании лежит среди обломков своего корабля, сын должен пересечь враждебный ландшафт, чтобы запустить их спасательный маячок. Ни о чем большем юноша в своей жизни не мечтал: быть солдатом, как отец, — его заветное желание. Сегодня у него есть шанс проявить себя.

    Выпущено: США, Blinding Edge Pictures, Columbia Pictures, Overbrook Entertainment
    Продолжительность: 01:40:02
    Перевод: Дублированный iTunes



    Качество: BDRip-1080p
    Видео: MPEG-4 AVC, 9823 Кбит/с, 1920x802
    Аудио rus: AC3, 6 ch, 384 Кбит/с
    Аудио eng: DTS, 6 ch, 1509 Кбит/с
    Субтитры: Русские, английские

    Семпл

    Инфо
    After.Earth.2013.D.BDRip.1080p.mkv
    Format : Matroska
    Format version : Version 4 / Version 2
    File size : 8.19 GiB
    Duration : 1h 40mn
    Overall bit rate : 11.7 Mbps
    Encoded date : UTC 2013-09-21 12:35:23
    Writing application : mkvmerge v6.3.0 (;You can;t stop me!;) built on Jun 28 2013 20:09:41
    Writing library : libebml v1.3.0 libmatroska v1.4.0

    Video
    ID : 1
    Format : AVC
    Format/Info : Advanced Video Codec
    Format profile : High@L4.1
    Format settings, CABAC : Yes
    Format settings, ReFrames : 5 frames
    Codec ID : V_MPEG4/ISO/AVC
    Duration : 1h 40mn
    Bit rate : 9 823 Kbps
    Width : 1 920 pixels
    Height : 802 pixels
    Display aspect ratio : 2.40:1
    Frame rate mode : Constant
    Frame rate : 23.976 fps
    Color space : YUV
    Chroma subsampling : 4:2:0
    Bit depth : 8 bits
    Scan type : Progressive
    Bits/(Pixel*Frame) : 0.266
    Stream size : 6.70 GiB (82%)
    Title : After.Earth.2013
    Writing library : x264 core 138 r2356 a1d3d17
    Encoding settings : cabac=1 / ref=5 / deblock=1:-3:-3 / analyse=0x3:0x113 / me=umh / subme=10 / psy=1 / psy_rd=1.00:0.05 / mixed_ref=1 / me_range=32 / chroma_me=1 / trellis=2 / 8x8dct=1 / cqm=0 / deadzone=21,11 / fast_pskip=0 / chroma_qp_offset=-2 / threads=18 / lookahead_threads=1 / sliced_threads=0 / nr=0 / decimate=1 / interlaced=0 / bluray_compat=0 / constrained_intra=0 / bframes=5 / b_pyramid=2 / b_adapt=2 / b_bias=0 / direct=3 / weightb=1 / open_gop=0 / weightp=2 / keyint=250 / keyint_min=23 / scenecut=40 / intra_refresh=0 / rc=2pass / mbtree=0 / bitrate=9823 / ratetol=1.0 / qcomp=0.70 / qpmin=0 / qpmax=69 / qpstep=4 / cplxblur=20.0 / qblur=0.5 / ip_ratio=1.40 / pb_ratio=1.30 / aq=2:1.00
    Language : English
    Default : Yes
    Forced : Yes

    Audio #1
    ID : 2
    Format : AC-3
    Format/Info : Audio Coding 3
    Mode extension : CM (complete main)
    Format settings, Endianness : Big
    Codec ID : A_AC3
    Duration : 1h 40mn
    Bit rate mode : Constant
    Bit rate : 384 Kbps
    Channel(s) : 6 channels
    Channel positions : Front: L C R, Side: L R, LFE
    Sampling rate : 48.0 KHz
    Bit depth : 16 bits
    Compression mode : Lossy
    Stream size : 275 MiB (3%)
    Title : DD 5.1 @ 384 kbps - Dub, iTunes
    Language : Russian
    Default : Yes
    Forced : Yes

    Audio #2
    ID : 3
    Format : DTS
    Format/Info : Digital Theater Systems
    Mode : 16
    Format settings, Endianness : Big
    Codec ID : A_DTS
    Duration : 1h 40mn
    Bit rate mode : Constant
    Bit rate : 1 509 Kbps
    Channel(s) : 6 channels
    Channel positions : Front: L C R, Side: L R, LFE
    Sampling rate : 48.0 KHz
    Bit depth : 24 bits
    Compression mode : Lossy
    Stream size : 1.05 GiB (13%)
    Title : DTS-CORE 1536K ENG
    Language : English
    Default : No
    Forced : No

    Text #1
    ID : 4
    Format : UTF-8
    Codec ID : S_TEXT/UTF8
    Codec ID/Info : UTF-8 Plain Text
    Title : Forced
    Language : Russian
    Default : No
    Forced : No

    Text #2
    ID : 5
    Format : UTF-8
    Codec ID : S_TEXT/UTF8
    Codec ID/Info : UTF-8 Plain Text
    Language : English
    Default : No
    Forced : No


    Скриншоты


    Размер: 8.19 GB (8790231447 Bytes)
    загрузка...
    Рейтинг →
     (голосов: 1, оценка 3/5, голосовать можно 1 раз )

    Другие торренты по теме:

  • После нашей эры / After Earth (2013) HDRip 1080p | Трейлер
  • OST - После нашей эры / After Earth (2013) MP3
  • После нашей эры / After Earth (2013) WEB-DLRip | iTunes Russia
  • После нашей эры / After Earth (2013) WEB-DL 720p | iTunes
  • После нашей эры / After Earth (2013) WEB-DLRip от Youtracker | D | iTunes Russia
  • После нашей эры / After Earth (2013) WEB-DLRip-AVC от Youtracker | D | iTunes Russia
  • После нашей эры / After Earth (2013) WEB-DLRip от Scarabey | iTunes Russia
  • После нашей эры / After Earth (2013) WEB-DLRip от Dalemake | iTunes


    • Комментарии (0):

      Информация

      Информация

        Посетители, находящиеся в группе Гости, не могут оставлять комментарии в данной новости.

        ↓ Меню



        ↓ Опрос

        А Вы добавили сайт в закладки?
        Да
        Не


        Top 10 за месяц (Фильмы)