.
Авторизация | Регистрация
Хочешь лучшие торренты? Добавь свой email!
Добавить
» » Конец света 2013: Апокалипсис по-голливудски / This Is the End (2013) BDRip 720p | Звук с TS скачать бесплатно через торрент




    Конец света 2013: Апокалипсис по-голливудски / This Is the End (2013) BDRip 720p | Звук с TS скачать бесплатно через торрент

    Опубликовал: Админ | Дата: 27-02-2015, 11:09 | Просмотров: 310



    Информация о фильме
    Название: Конец света 2013: Апокалипсис по-голливудски
    Оригинальное название: This Is the End
    Год выхода: 2013
    Жанр: комедия, фэнтези
    Режиссер: Сет Роген, Ивэн Голдберг
    В ролях: Джеймс Франко, Джона Хилл, Сет Роген, Джей Барушель, Дэнни МакБрайд, Крэйг Робинсон, Майкл Сера, Эмма Уотсон, Минди Калинг, Дэвид Крамхолц

    О фильме: Джей Барушель приезжает в Лос-Анджелес, чтобы посетить старого друга и коллегу, актера Сета Рогена, который пригласил Барушеля на новоселье, которое организовывает Джеймс Франко. На не очень приличную вечеринку приехали многие знаменитости. Барушелю неудобно среди такого количества людей, он практически не знает лично таких знаменитостей, как: Джона Хилл, Кристофер Минц-Плассе, Майкл Сера, Крейг Робинсон, Эмма Уотсон и Ченнинг Татум. Роген, чтобы немного успокоить друга, сопровождает его в магазин за сигаретами.

    В магазине лучи синего света с неба вдруг унесли несколько покупателей. Перепуганные Роген и Барушель бегут в дом Франко на фоне взрывов, автомобильных аварий, а также массового хаоса, но на вечеринке синие лучи никого не тронули. Подвыпившие гости не верят россказням Барушеля и объявляют его сумасшедшим, но через несколько секунд слышат снаружи грохот…




    Выпущено: США / Columbia Pictures
    Продолжительность: 01:46:41
    Озвучивание: Дублированное звук с TS

    Файл
    Формат: MKV
    Качество: BDRip 720p
    Видео: 4451 Kb/s, 1280x536
    Аудио: Russian: MP3, 128 kb/s (2 ch) / English: AC3, 448 kb/s (6 ch)
    Субтитры: English
    Дополнительно: Сохранены оригинальные чаптеры как на BluRay







    MI

    Format : Matroska
    Format version : Version 4 / Version 2
    File size : 3.76 GiB
    Duration : 1h 46mn
    Overall bit rate : 5 046 Kbps
    Movie name : Rib by 03nazar03
    Encoded date : UTC 2013-09-20 18:18:37
    Writing application : mkvmerge v6.1.0 (;Old Devil;) built on Mar 4 2013 09:10:42
    Writing library : libebml v1.3.0 libmatroska v1.4.0

    Video
    ID : 1
    Format : AVC
    Format/Info : Advanced Video Codec
    Format profile : High@L4.1
    Format settings, CABAC : Yes
    Format settings, ReFrames : 9 frames
    Codec ID : V_MPEG4/ISO/AVC
    Duration : 1h 46mn
    Bit rate : 4 451 Kbps
    Width : 1 280 pixels
    Height : 536 pixels
    Display aspect ratio : 2.40:1
    Frame rate : 23.976 fps
    Color space : YUV
    Chroma subsampling : 4:2:0
    Bit depth : 8 bits
    Scan type : Progressive
    Bits/(Pixel*Frame) : 0.271
    Stream size : 3.26 GiB (87%)
    Writing library : x264 core 130 r2273 b3065e6
    Encoding settings : cabac=1 / ref=9 / deblock=1:-3:-3 / analyse=0x3:0x133 / me=tesa / subme=11 / psy=1 / psy_rd=1.00:0.20 / mixed_ref=1 / me_range=32 / chroma_me=1 / trellis=2 / 8x8dct=1 / cqm=0 / deadzone=21,11 / fast_pskip=0 / chroma_qp_offset=-3 / threads=12 / lookahead_threads=2 / sliced_threads=0 / nr=0 / decimate=0 / interlaced=0 / bluray_compat=0 / constrained_intra=0 / bframes=10 / b_pyramid=2 / b_adapt=2 / b_bias=0 / direct=3 / weightb=1 / open_gop=0 / weightp=2 / keyint=250 / keyint_min=23 / scenecut=40 / intra_refresh=0 / rc=2pass / mbtree=0 / bitrate=4451 / ratetol=1.0 / qcomp=0.60 / qpmin=0 / qpmax=69 / qpstep=4 / cplxblur=20.0 / qblur=0.5 / ip_ratio=1.40 / pb_ratio=1.30 / aq=1:1.00
    Language : English
    Default : Yes
    Forced : No

    Audio #1
    ID : 2
    Format : MPEG Audio
    Format version : Version 1
    Format profile : Layer 3
    Codec ID : A_MPEG/L3
    Codec ID/Hint : MP3
    Duration : 1h 46mn
    Bit rate mode : Constant
    Bit rate : 128 Kbps
    Channel(s) : 2 channels
    Sampling rate : 48.0 KHz
    Compression mode : Lossy
    Stream size : 97.7 MiB (3%)
    Language : Russian
    Default : Yes
    Forced : No

    Audio #2
    ID : 3
    Format : AC-3
    Format/Info : Audio Coding 3
    Mode extension : CM (complete main)
    Format settings, Endianness : Big
    Codec ID : A_AC3
    Duration : 1h 46mn
    Bit rate mode : Constant
    Bit rate : 448 Kbps
    Channel(s) : 6 channels
    Channel positions : Front: L C R, Side: L R, LFE
    Sampling rate : 48.0 KHz
    Bit depth : 16 bits
    Compression mode : Lossy
    Stream size : 342 MiB (9%)
    Language : English
    Default : No
    Forced : No

    Text
    ID : 4
    Format : PGS
    Muxing mode : zlib
    Codec ID : S_HDMV/PGS
    Codec ID/Info : The same subtitle format used on BDs/HD-DVDs
    Language : English
    Default : No
    Forced : No

    Menu
    00:00:00.000 : en:00:00:00.000
    00:05:50.392 : en:00:05:50.392
    00:12:12.732 : en:00:12:12.732
    00:17:37.598 : en:00:17:37.598
    00:23:49.011 : en:00:23:49.011
    00:29:23.637 : en:00:29:23.637
    00:38:27.847 : en:00:38:27.847
    00:44:36.716 : en:00:44:36.716
    00:49:16.328 : en:00:49:16.328
    00:59:15.594 : en:00:59:15.594
    01:06:03.001 : en:01:06:03.001
    01:12:45.319 : en:01:12:45.319
    01:19:24.969 : en:01:19:24.969
    01:26:21.343 : en:01:26:21.343
    01:33:17.967 : en:01:33:17.967
    01:37:41.773 : en:01:37:41.773
    Скриншоты


    Рип: 03nazar03
    Размер: 3.76 GB (4037560755 Bytes)
    загрузка...
    Рейтинг →
     (голосов: 1, оценка 4/5, голосовать можно 1 раз )

    Другие торренты по теме:

  • OST - Конец света / End Of Days Soundtrack (1999) MP3
  • Конец света / End of Days (1999) BDRip от Torrent-Xzona | КПК
  • Конец света / Крах / Collapse / Collapse of the Living Dead (2010) BDRip-AVC от MediaClub
  • Конец света 2013: Апокалипсис по-голливудски / This Is the End (2013) BDRip | Звук с TS скачать бесплатно через торрент
  • Конец света 2013: Апокалипсис по-голливудски / This Is the End (2013) HDRip от Scarabey | Чистый звук скачать через торрент бесплатно
  • Конец света 2013: Апокалипсис по-голливудски / This Is the End (2013) BDRip-AVC от ExKinoRay | Чистый звук скачать через торрент бесплатно
  • Конец света 2013: Апокалипсис по-голливудски / This Is the End (2013) BDRemux 1080p | Чистый звук скачать через торрент бесплатно
  • Конец света 2013: Апокалипсис по-голливудски / This Is the End (2013) BDRip 720p | Чистый звук скачать через торрент бесплатно


    • Комментарии (0):

      Информация

      Информация

        Посетители, находящиеся в группе Гости, не могут оставлять комментарии в данной новости.

        ↓ Меню



        ↓ Опрос

        А Вы добавили сайт в закладки?
        Да
        Не


        Top 10 за месяц (Фильмы)