.
Авторизация | Регистрация
Хочешь лучшие торренты? Добавь свой email!
Добавить
» » Сонная лощина / Sleepy Hollow (1999) BDRip-AVC | P, Р2, A скачать торрент бесплатно




    Сонная лощина / Sleepy Hollow (1999) BDRip-AVC | P, Р2, A скачать торрент бесплатно

    Опубликовал: Админ | Дата: 27-02-2015, 11:09 | Просмотров: 395



    Информация о фильме
    Название: Сонная лощина
    Оригинальное название: Sleepy Hollow
    Год выхода: 1999
    Жанр: ужасы, фэнтези, триллер, детектив
    Страна: США, Германия
    Студия: American Zoetrope, Karol Film Productions, Mandalay Pictures, Paramount Pictures, Tim Burton Productions
    Продолжительность: 01:45:15
    Перевод: Профессиональный (двухголосый, закадровый) |Премьер Видео Фильм|, Профессиональный (многоголосый закадровый) |Superbit|, Авторский одноголосый (А.Гаврилов), Профессиональный (многоголосый, закадровый) |НТВ |

    Режиссер: Тим Бёртон

    В ролях: Джонни Депп, Кристина Риччи, Миранда Ричардсон, Майкл Гэмбон, Каспер Ван Дин, Джеффри Джонс, Ричард Гриффитс, Иэн МакДайармид, Майкл Гоф, Кристофер Уокен

    О фильме:
    Нью-Йорк, 1799 год. Икабода Крэйна, молодого констебля, отправляют в местечко Сонная лощина для расследования загадочных убийств. Все жертвы, как сообщает местное население, погибают от меча всадника без головы.

    Все они обезглавлены, а головы исчезли. Крэйну приходится убедиться, что это не легенда, а страшная правда. Становится очевидно, что убийца приходит с того света, что в преступлениях замешаны ведьмы и иная нечисть. Всадника нельзя убить пулей, всех смельчаков он побеждает в схватках. Но каковы мотивы злодеяний?...




    Качество: BDRip-AVC
    Формат: MKV
    Видео: 1016 x 550 (1.85 :1), 23.976 fps, 1783 Кбит/сек, 0.13 bit/pixel
    Аудио 1: AC-3, 256 Кбит/сек, 2 каналов - Премьер Видео Фильм
    Аудио 2: AC-3, 384 Кбит/сек, 6 каналов - Superbit
    Аудио 3: AC-3, 384 Кбит/сек, 6 каналов - А.Гаврилов
    Аудио 4: AC-3, 384 Кбит/сек, 6 каналов - НТВ
    Аудио 5: AC-3, 384 Кбит/сек, 6 каналов - оригинал
    Cубтитры: русские, английские softsub (SRT)

    MediaInfo:
    Формат : Matroska
    Версия формата : Version 4 / Version 2
    Размер файла : 2,63 Гбайт
    Продолжительность : 1 ч. 45 м.
    Режим общего битрейта : Переменный
    Общий поток : 3579 Кбит/сек
    Дата кодирования : UTC 2013-09-19 01:05:04
    Программа кодирования : mkvmerge v6.3.0 (;You can;t stop me!;) built on Jul 19 2013 16:27:38
    Библиотека кодирования : libebml v1.3.0 libmatroska v1.4.1

    Видео
    Идентификатор : 1
    Формат : AVC
    Формат/Информация : Advanced Video Codec
    Профиль формата : High@L4.1
    Параметр CABAC формата : Да
    Параметр ReFrames формата : 10 кадров
    Идентификатор кодека : V_MPEG4/ISO/AVC
    Вид битрейта : Переменный
    Битрейт : 1783 Кбит/сек
    Максимальный битрейт : 40,0 Мбит/сек
    Ширина : 1016 пикселей
    Высота : 550 пикселей
    Соотношение сторон : 1,85:1
    Режим частоты кадров : Переменный
    Частота кадров в оригинале : 23,976 кадра/сек
    Цветовое пространство : YUV
    Субдискретизация насыщенности : 4:2:0
    Битовая глубина : 8 бит
    Тип развёртки : Прогрессивная
    Бит/(Пиксели*Кадры) : 0.133
    Библиотека кодирования : x264 core 125 r2200 999b753
    Настройки программы : cabac=1 / ref=10 / deblock=1:-3:-2 / analyse=0x3:0x113 / me=umh / subme=11 / psy=1 / psy_rd=0.90:0.03 / mixed_ref=1 / me_range=48 / chroma_me=1 / trellis=2 / 8x8dct=1 / cqm=0 / deadzone=21,11 / fast_pskip=0 / chroma_qp_offset=-3 / threads=6 / lookahead_threads=1 / sliced_threads=0 / nr=0 / decimate=1 / interlaced=0 / bluray_compat=0 / constrained_intra=0 / bframes=9 / b_pyramid=2 / b_adapt=2 / b_bias=0 / direct=3 / weightb=1 / open_gop=0 / weightp=2 / keyint=240 / keyint_min=24 / scenecut=40 / intra_refresh=0 / rc=2pass / mbtree=0 / bitrate=1783 / ratetol=1.0 / qcomp=0.70 / qpmin=0 / qpmax=69 / qpstep=4 / cplxblur=20.0 / qblur=0.5 / ip_ratio=1.40 / pb_ratio=1.20 / aq=2:0.8
    Default : Да
    Forced : Нет

    Аудио #1
    Идентификатор : 2
    Формат : AC-3
    Формат/Информация : Audio Coding 3
    Расширение режима : CM (complete main)
    Параметр Endianness формата : Big
    Идентификатор кодека : A_AC3
    Продолжительность : 1 ч. 45 м.
    Вид битрейта : Постоянный
    Битрейт : 256 Кбит/сек
    Каналы : 2 канала
    Расположение каналов : Front: L R
    Частота : 48,0 КГц
    Битовая глубина : 16 бит
    Метод сжатия : С потерями
    Размер потока : 193 Мбайт (7%)
    Заголовок : Двухголосый Premier
    Язык : Russian
    Default : Да
    Forced : Да

    Аудио #2
    Идентификатор : 3
    Формат : AC-3
    Формат/Информация : Audio Coding 3
    Расширение режима : CM (complete main)
    Параметр Endianness формата : Big
    Идентификатор кодека : A_AC3
    Продолжительность : 1 ч. 45 м.
    Вид битрейта : Постоянный
    Битрейт : 384 Кбит/сек
    Каналы : 6 каналов
    Расположение каналов : Front: L C R, Side: L R, LFE
    Частота : 48,0 КГц
    Битовая глубина : 16 бит
    Метод сжатия : С потерями
    Размер потока : 289 Мбайт (11%)
    Заголовок : Многоголосый Superbit
    Язык : Russian
    Default : Нет
    Forced : Нет

    Аудио #3
    Идентификатор : 4
    Формат : AC-3
    Формат/Информация : Audio Coding 3
    Расширение режима : CM (complete main)
    Параметр Endianness формата : Big
    Идентификатор кодека : A_AC3
    Продолжительность : 1 ч. 45 м.
    Вид битрейта : Постоянный
    Битрейт : 384 Кбит/сек
    Каналы : 6 каналов
    Расположение каналов : Front: L C R, Side: L R, LFE
    Частота : 48,0 КГц
    Битовая глубина : 16 бит
    Метод сжатия : С потерями
    Размер потока : 289 Мбайт (11%)
    Заголовок : Авторский перевод (А.Гаврилов)
    Язык : Russian
    Default : Нет
    Forced : Нет

    Аудио #4
    Идентификатор : 5
    Формат : AC-3
    Формат/Информация : Audio Coding 3
    Расширение режима : CM (complete main)
    Параметр Endianness формата : Big
    Идентификатор кодека : A_AC3
    Продолжительность : 1 ч. 45 м.
    Вид битрейта : Постоянный
    Битрейт : 384 Кбит/сек
    Каналы : 6 каналов
    Расположение каналов : Front: L C R, Side: L R, LFE
    Частота : 48,0 КГц
    Битовая глубина : 16 бит
    Метод сжатия : С потерями
    Размер потока : 289 Мбайт (11%)
    Заголовок : НТВ
    Язык : Russian
    Default : Нет
    Forced : Нет

    Аудио #5
    Идентификатор : 6
    Формат : AC-3
    Формат/Информация : Audio Coding 3
    Расширение режима : CM (complete main)
    Параметр Endianness формата : Big
    Идентификатор кодека : A_AC3
    Продолжительность : 1 ч. 45 м.
    Вид битрейта : Постоянный
    Битрейт : 384 Кбит/сек
    Каналы : 6 каналов
    Расположение каналов : Front: L C R, Side: L R, LFE
    Частота : 48,0 КГц
    Битовая глубина : 16 бит
    Метод сжатия : С потерями
    Размер потока : 289 Мбайт (11%)
    Язык : English
    Default : Нет
    Forced : Нет

    Текст #1
    Идентификатор : 7
    Формат : UTF-8
    Идентификатор кодека : S_TEXT/UTF8
    Идентификатор кодека/Информация : UTF-8 Plain Text
    Язык : Russian
    Default : Нет
    Forced : Нет

    Текст #2
    Идентификатор : 8
    Формат : UTF-8
    Идентификатор кодека : S_TEXT/UTF8
    Идентификатор кодека/Информация : UTF-8 Plain Text
    Язык : English
    Default : Нет
    Forced : Нет

    Меню
    00:00:00.000 : en:The Fate of Peter Van Garrett
    00:03:41.221 : en:Constable Crane
    00:07:12.098 : en:Sleepy Hollow
    00:13:30.977 : en:The Headless Horseman
    00:19:09.181 : en:Masbath;s Terrible Death
    00:26:59.117 : en:Five Victims, Four Graves
    00:29:38.977 : en:A Wakeful Night
    00:36:32.357 : en:Magistrate Philipse
    00:42:06.524 : en:The Western Woods
    00:46:42.166 : en:Tree of the Dead
    00:52:17.334 : en:The Killian Family
    00:58:05.649 : en:You have bewitched me
    01:03:15.291 : en:The Secret Conspiracy
    01:10:03.232 : en:An Angry Wound
    01:14:40.509 : en:Murder Begets Murder
    01:18:59.268 : en:Evil Eyes
    01:23:19.161 : en:The Archer
    01:31:09.297 : en:A Head For A Head
    01:38:25.733 : en:A New Century

    Скриншоты

    Размер: 2.63 GB (2826468812 Bytes)
    загрузка...
    Рейтинг →
     (голосов: 1, оценка 3/5, голосовать можно 1 раз )

    Другие торренты по теме:

  • OST - Сонная лощина / Sleepy Hollow (1999) MP3
  • Сонная Лощина / Sleepy Hollow (1999) BDRip 720p от MediaClub
  • Сонная лощина. Всадник без головы. Коллекционное издание / Cursed Fates: The Headless Horseman (2013) PC
  • Сонная лощина / Sleepy Hollow (2013) WEB-DLRip | Kerob
  • Сонная лощина / Sleepy Hollow (2013) WEB-DL 720p | SUB
  • Сонная лощина / Sleepy Hollow (2013) HDTVRip | L1
  • Сонная Лощина / Sleepy Hollow (2013) WEBDLRip | NewStudio
  • Сонная Лощина / Sleepy Hollow (2013) WEB-DLRip | LostFilm


    • Комментарии (0):

      Информация

      Информация

        Посетители, находящиеся в группе Гости, не могут оставлять комментарии в данной новости.

        ↓ Меню



        ↓ Опрос

        А Вы добавили сайт в закладки?
        Да
        Не


        Top 10 за месяц (Фильмы)