.
Авторизация | Регистрация
Хочешь лучшие торренты? Добавь свой email!
Добавить




Провокатор (2011) DVDRip скачать торрент бесплатно

Опубликовал: Админ | Дата: 27-02-2015, 11:09 | Просмотров: 638





Страна: Россия
Производство: К/к Браво
Жанр: Мелодрама, криминал, комедия
Год выпуска: 2011

Продолжительность: 4 х ~ 00:48:00


Язык: Русский



Режиссер: Дмитрий Пантелеев, Анна Зайцева


В ролях: Виталий Хаев, Евгений Сангаджиев, Игорь Волков, Александра Шевченко, Станислав Лесной, Тимофей Криницкий, Мария Цап-Страшилина, Михаил Иванов



Описание: Старший следователь СКП Панкратов втайне от начальства (что ему свойственно) едет на расследование убийства своего давнего товарища и его семьи в Краснодарский край, где провокационными методами пытается вывести преступную группировку местного авторитета Сапуна, который к тому же является главой злополучного края, на чистую воду. Помогает ему в этом увязавшийся следом Сангаджи и очаровательная журналистка из Москвы Женя Колесникова, которую они встречают уже на месте, по уши увязнув в криминальной истории…

Исходник: DVD9 R5

Тип релиза: DVDRip

Контейнер: AVI


Видео: 720x400 (1.80:1), 23.976 fps, XviD ~1019 kbps avg, 0.15 bit/pixel
Аудио: #1: 48 kHz, AC3 2.0 ~448.00 kbps avg



MediaInfo
Общее
Полное имя : D:залитьПровокатор1 серия.avi
Формат : AVI
Формат/Информация : Audio Video Interleave
Размер файла : 508 Мбайт
Продолжительность : 48 м.
Общий поток : 1477 Кбит/сек
Программа кодирования : VirtualDubMod 1.5.10.3 | www.virtualdub-fr.org || (build 2550/release)
Библиотека кодирования : VirtualDubMod build 2550/release

Видео
Идентификатор : 0
Формат : MPEG-4 Visual
Профиль формата : Advanced Simple@L5
Параметр BVOP формата : 2
Параметр QPel формата : Нет
Параметр GMC формата : Без точки перехода
Параметр матрицы формата : Default (MPEG)
Идентификатор кодека : XVID
Идентификатор кодека/Подсказка : XviD
Продолжительность : 48 м.
Битрейт : 1020 Кбит/сек
Ширина : 720 пикселей
Высота : 400 пикселей
Соотношение сторон : 16:9
Частота кадров : 23,976 кадра/сек
Цветовое пространство : YUV
Субдискретизация насыщенности : 4:2:0
Битовая глубина : 8 бит
Тип развёртки : Прогрессивная
Метод сжатия : С потерями
Бит/(Пиксели*Кадры) : 0.148
Размер потока : 351 Мбайт (69%)
Библиотека кодирования : XviD 1.2.1 (UTC 2008-12-04)

Аудио
Идентификатор : 1
Формат : AC-3
Формат/Информация : Audio Coding 3
Расширение режима : CM (complete main)
Параметр Endianness формата : Big
Идентификатор кодека : 2000
Продолжительность : 48 м.
Вид битрейта : Постоянный
Битрейт : 448 Кбит/сек
Каналы : 2 канала
Расположение каналов : Front: L R
Частота : 48,0 КГц
Битовая глубина : 16 бит
Метод сжатия : С потерями
Размер потока : 154 Мбайт (30%)
Выравнивание : Разделение по промежуткам
Продолжительность промежутка : 42 мс. (1,00 видеокадр)
Время предзагрузки промежутка : 500 мс.






Скриншоты



Автор рипа:
Залил: YArl
Размер: 1.99 GB (2133817344 Bytes)
загрузка...
Рейтинг →
 (голосов: 1, оценка 4/5, голосовать можно 1 раз )

Другие торренты по теме:



    Комментарии (0):

    Информация

    Информация

      Посетители, находящиеся в группе Гости, не могут оставлять комментарии в данной новости.

      ↓ Меню



      ↓ Опрос

      А Вы добавили сайт в закладки?
      Да
      Не


      Top 10 за месяц (Фильмы)