.
Авторизация | Регистрация
Хочешь лучшие торренты? Добавь свой email!
Добавить
» » Боевые псы / Battledogs (2013) HDRip-AVC | L1 скачать торрент бесплатно




    Боевые псы / Battledogs (2013) HDRip-AVC | L1 скачать торрент бесплатно

    Опубликовал: Админ | Дата: 27-02-2015, 11:09 | Просмотров: 415



    Информация о фильме
    Название: Боевые псы
    Оригинальное название: Battledogs
    Год выхода: 2013
    Жанр: ужасы, фантастика, боевик, триллер
    Режиссер: Александр Йеллен
    В ролях: Крэйг Шеффер, Деннис Хейсбёрт, Кейт Вернон, Ариана Ричардс, Билл Дьюк, Уэс Стьюди, Эрни Хадсон, Энтони Паселла, Дэрин Купер, Afrim Gjonbalaj

    О фильме: Люди пытаются использовать оборотней в качестве оружия. По их замыслу оборотни будут распространять инфекцию, кусая противника…



    Выпущено: США / Asylum, The, Infectious Films
    Продолжительность: 01:28:33
    Озвучивание: любительское (одноголосое) VANO

    Файл
    Формат: MKV
    Качество: HDRip-AVC
    Видео: 1897 kb/s, 1024x576
    Аудио: AC3, 448 kb/s (6 ch)





    MI

    Format : Matroska
    Format version : Version 4 / Version 2
    File size : 1.45 GiB
    Duration : 1h 28mn
    Overall bit rate : 2 346 Kbps
    Movie name : Rip by 03nazar03
    Encoded date : UTC 2013-09-16 15:08:09
    Writing application : mkvmerge v6.1.0 (;Old Devil;) built on Mar 4 2013 09:10:42
    Writing library : libebml v1.3.0 libmatroska v1.4.0

    Video
    ID : 1
    Format : AVC
    Format/Info : Advanced Video Codec
    Format profile : High@L4.1
    Format settings, CABAC : Yes
    Format settings, ReFrames : 9 frames
    Codec ID : V_MPEG4/ISO/AVC
    Duration : 1h 28mn
    Bit rate : 1 897 Kbps
    Width : 1 024 pixels
    Height : 576 pixels
    Display aspect ratio : 16:9
    Frame rate : 23.976 fps
    Color space : YUV
    Chroma subsampling : 4:2:0
    Bit depth : 8 bits
    Scan type : Progressive
    Bits/(Pixel*Frame) : 0.134
    Stream size : 1.15 GiB (79%)
    Writing library : x264 core 130 r2273 b3065e6
    Encoding settings : cabac=1 / ref=9 / deblock=1:-3:-3 / analyse=0x3:0x133 / me=umh / subme=11 / psy=1 / psy_rd=1.00:0.20 / mixed_ref=1 / me_range=32 / chroma_me=1 / trellis=2 / 8x8dct=1 / cqm=0 / deadzone=21,11 / fast_pskip=0 / chroma_qp_offset=-3 / threads=12 / lookahead_threads=2 / sliced_threads=0 / nr=0 / decimate=0 / interlaced=0 / bluray_compat=0 / constrained_intra=0 / bframes=10 / b_pyramid=2 / b_adapt=2 / b_bias=0 / direct=3 / weightb=1 / open_gop=0 / weightp=2 / keyint=250 / keyint_min=23 / scenecut=40 / intra_refresh=0 / rc_lookahead=60 / rc=2pass / mbtree=1 / bitrate=1897 / ratetol=1.0 / qcomp=0.60 / qpmin=0 / qpmax=69 / qpstep=4 / cplxblur=20.0 / qblur=0.5 / ip_ratio=1.40 / aq=1:1.00
    Default : Yes
    Forced : No

    Audio
    ID : 2
    Format : AC-3
    Format/Info : Audio Coding 3
    Mode extension : CM (complete main)
    Format settings, Endianness : Big
    Codec ID : A_AC3
    Duration : 1h 28mn
    Bit rate mode : Constant
    Bit rate : 448 Kbps
    Channel(s) : 6 channels
    Channel positions : Front: L C R, Side: L R, LFE
    Sampling rate : 48.0 KHz
    Bit depth : 16 bits
    Compression mode : Lossy
    Stream size : 284 MiB (19%)
    Default : Yes
    Forced : No

    Menu
    00:00:00.000 : en:00:00:00.000
    00:10:00.600 : en:00:10:00.600
    00:20:01.200 : en:00:20:01.200
    00:30:01.800 : en:00:30:01.800
    00:40:02.400 : en:00:40:02.400
    00:50:03.000 : en:00:50:03.000
    01:00:03.600 : en:01:00:03.600
    01:10:04.200 : en:01:10:04.200
    01:20:04.800 : en:01:20:04.800
    Скриншоты


    Рип: 03nazar03
    Размер: 1.45 GB (1558188045 Bytes)
    загрузка...
    Рейтинг →
     (голосов: 1, оценка 5/5, голосовать можно 1 раз )

    Другие торренты по теме:

  • Боевые псы / Battledogs (2013) HDRip от INTERCINEMA | L1
  • Боевые псы / Battledogs (2013) BDRip 720p | L1
  • Боевые псы / Battledogs (2013) HDRip-AVC | P скачать через торрент бесплатно
  • Боевые псы / Battledogs (2013) BDRip 720p | P, L1 скачать через торрент бесплатно
  • Боевые псы / Battledogs (2013) HDRip | Р скачать через торрент бесплатно
  • Боевые псы / Battledogs (2013) HDRip | Р скачать через торрент бесплатно
  • Боевые псы (Кто остановит дождь) / Who'll Stop the Rain / 1978 / ПД / HDRip


    • Комментарии (0):

      Информация

      Информация

        Посетители, находящиеся в группе Гости, не могут оставлять комментарии в данной новости.

        ↓ Меню



        ↓ Опрос

        А Вы добавили сайт в закладки?
        Да
        Не


        Top 10 за месяц (Фильмы)