.
Авторизация | Регистрация
Хочешь лучшие торренты? Добавь свой email!
Добавить
» » Легенда о Нараяме / Narayama-bushi ko (1983) BDRip | L1 скачать торрент бесплатно




    Легенда о Нараяме / Narayama-bushi ko (1983) BDRip | L1 скачать торрент бесплатно

    Опубликовал: Админ | Дата: 27-02-2015, 11:09 | Просмотров: 577



    Название: Легенда о Нараяме
    Оригинальное название: Narayama-bushi ko
    Год выпуска: 1983
    Жанр: Драма
    Выпущено: Япония, Toei Co. Ltd.
    Режиссер: Сехэй Имамура
    В ролях: Кен Огата, Сумико Сакамото, Тонпэй Хидари, Такэдзё Аки, Сёити Одзава, Фудзио Токита, Сансё Синсуи, Сэйдзи Курасаки, Дзюнко Такада, Мицуко Байсё, Тайдзи Тонояма, Кэйси Такаминэ, Нэндзи Кобаяси, Нидзико Киёкава, Акио Ёкояма, Каору Симамори, Юки Шимура, Масами Окамото, Хидэо Хасэгава, Бэн Хиура, Кэндзи Мурасэ, Косэй Сато, Норихэй Мики, Кан Это, Рютаро Тацуми, Фусако Ивасаки, Саюка Накамура, Адзуми Танба

    О фильме: Действие происходит в XIX столетии в японской деревушке, поражённой голодом. Чтобы не умирать голодной смертью, жители ввели ритуал умерщвления бесполезных членов сообщества: новорождённых мальчиков просто убивали, а пожилых людей их собственные дети относили на вершину горы Нараяма и оставляли умирать. Орин - женщина 69 лет должна умереть. Её сын не хочет выполнить ритуал, но того требует мать, верная традиции. Найдя жён своим детям, она начинает последний подъём на вершину, привязанной к спине сына.

    Качество: BDRip
    Видео: XviD, 1909 Кбит/с, 720х384
    Аудио: Русский, японский (AC3, 2 ch, 192 Кбит/с)
    Размер: 2.09 ГБ
    Продолжительность: 02:10:04
    Перевод: Любительский одноголосый (artvideodvd)
    Субтитры: Русские, английские

    Исходник | Сравнение с исходником



    Награды
    Каннский кинофестиваль, 1983 год
    Победитель (1):
    Золотая пальмовая ветвь
    Из отзывов...
    ursulla_grant

    Умирать надо вовремя.

    Я честно собиралась рыдать навзрыд. Но уже с первых минут фильма поняла, что жалеть в этом фильме некого. Ибо кино вовсе не о страшном обычае, а о том, что неважно, что ты чувствуешь, важно, что ты должен.
    Не зря в конце показывают старика, жадно цепляющегося за жизнь, который не сумел совладать с чувствами и за это расплатился низкой и убогой смертью. Типично азиатская философия — смирись и обрети покой, а в нём счастье.
    Жалеть главную героиню Орин не за что, она правильно подготовилась, она отправила на смерть свою невестку и ушла за смертью сама, потому что это было единственно правильное решение. Она жила и умерла так, как считала нужным. Так что её надо уважать, а не жалеть.
    В целом, фильм по-японски неспешен, красив, не в меру эротичен и, подобно японской гравюре, плосок. Он намного проще, чем кажется. Пальмовая ветвь ему досталась скорее за экзотичность, чем за смысл.

    7 из 10

    Кинопоиск
    MediaInfo
    Общее
    Полное имя : E:VideoLegenda.o.Narajame.1983.XviD.BDRipLegenda.o.Narajame.1983.eng.srt
    Формат : SubRip
    Размер файла : 53,2 Кбайт

    Текст
    Формат : SubRip
    Метод сжатия : Без потерь

    Общее
    Полное имя : E:VideoLegenda.o.Narajame.1983.XviD.BDRipLegenda.o.Narajame.1983.Original.jpn.ac3
    Формат : AC-3
    Формат/Информация : Audio Coding 3
    Размер файла : 179 Мбайт
    Продолжительность : 2 ч. 10 м.
    Режим общего битрейта : Постоянный
    Общий поток : 192 Кбит/сек

    Аудио
    Формат : AC-3
    Формат/Информация : Audio Coding 3
    Расширение режима : CM (complete main)
    Параметр Endianness формата : Big
    Продолжительность : 2 ч. 10 м.
    Вид битрейта : Постоянный
    Битрейт : 192 Кбит/сек
    Каналы : 2 канала
    Расположение каналов : Front: L R
    Частота : 48,0 КГц
    Битовая глубина : 16 бит
    Метод сжатия : С потерями
    Размер потока : 179 Мбайт (100%)

    Общее
    Полное имя : E:VideoLegenda.o.Narajame.1983.XviD.BDRipLegenda.o.Narajame.1983.rus.srt
    Формат : SubRip
    Размер файла : 46,0 Кбайт

    Текст
    Формат : SubRip
    Метод сжатия : Без потерь

    Общее
    Полное имя : E:VideoLegenda.o.Narajame.1983.XviD.BDRipLegenda.o.Narajame.1983.XviD.BDRip.avi
    Формат : AVI
    Формат/Информация : Audio Video Interleave
    Размер файла : 1,92 Гбайт
    Продолжительность : 2 ч. 10 м.
    Общий поток : 2110 Кбит/сек
    Программа кодирования : VirtualDubMod 1.5.10.2 (build 2540/release)
    Библиотека кодирования : VirtualDubMod build 2540/release

    Видео
    Идентификатор : 0
    Формат : MPEG-4 Visual
    Профиль формата : Advanced Simple@L5
    Параметр BVOP формата : 1
    Параметр QPel формата : Нет
    Параметр GMC формата : Без точки перехода
    Параметр матрицы формата : Default (H.263)
    Режим смешивания : Сжатый битовый поток
    Идентификатор кодека : XVID
    Идентификатор кодека/Подсказка : XviD
    Продолжительность : 2 ч. 10 м.
    Битрейт : 1909 Кбит/сек
    Ширина : 720 пикселей
    Высота : 384 пикселя
    Соотношение сторон : 1,85:1
    Частота кадров : 23,976 кадра/сек
    Цветовое пространство : YUV
    Субдискретизация насыщенности : 4:2:0
    Битовая глубина : 8 бит
    Тип развёртки : Прогрессивная
    Метод сжатия : С потерями
    Бит/(Пиксели*Кадры) : 0.288
    Размер потока : 1,73 Гбайт (90%)
    Библиотека кодирования : XviD 1.2.1 (UTC 2008-12-04)

    Аудио
    Идентификатор : 1
    Формат : AC-3
    Формат/Информация : Audio Coding 3
    Расширение режима : CM (complete main)
    Параметр Endianness формата : Big
    Идентификатор кодека : 2000
    Продолжительность : 2 ч. 10 м.
    Вид битрейта : Постоянный
    Битрейт : 192 Кбит/сек
    Каналы : 2 канала
    Расположение каналов : Front: L R
    Частота : 48,0 КГц
    Битовая глубина : 16 бит
    Метод сжатия : С потерями
    Размер потока : 179 Мбайт (9%)
    Выравнивание : Разделение по промежуткам
    Продолжительность промежутка : 42 мс. (1,00 видеокадр)
    Время предзагрузки промежутка : 500 мс.
    Скриншоты





    Залил: msltel
    Размер: 2.09 GB (2246295709 Bytes)
    загрузка...
    Рейтинг →
     (голосов: 1, оценка 3/5, голосовать можно 1 раз )

    Другие торренты по теме:

  • Феи и легенда загадочного зверя / Феи : Легенда о чудовище (2015) HDRip скачать через торрент бесплатно
  • Легенда о бессмертии / Легенда про безсмертя / 1985 / СТ / VHSRip
  • Л.О.Р.Д. Легенда о разорении династий / L.O.R.D: Legend of Ravaging Dynasties (2016) TC-720p от Batafurai Team и SOUND-GROUP | L2
  • Л.О.Р.Д. Легенда о разорении династий / L.O.R.D: Legend of Ravaging Dynasties (2016) WEB-DLRip-AVC от Batafurai Team и SOUND-GROUP | L2
  • Доктор заяц и легенда о Зубном королевстве / Legend of dental Kingdom (2009) DVDRip от RG Superdetki
  • Легенда о Брюсе Ли / The Legend of Bruce Lee (2008) DVDRip
  • Легенда о Костоломе / Legend of the BoneKnapper Dragon (2010) BDRip 720p | Невафильм
  • Легенда о Зорро / The Legend of Zorro (1996-1997) DVDRip


    • Комментарии (0):

      Информация

      Информация

        Посетители, находящиеся в группе Гости, не могут оставлять комментарии в данной новости.

        ↓ Меню



        ↓ Опрос

        А Вы добавили сайт в закладки?
        Да
        Не


        Top 10 за месяц (Фильмы)