.
Авторизация | Регистрация
Хочешь лучшие торренты? Добавь свой email!
Добавить
» » Звёздные Врата: Ковчег Истины / Stargate: The Ark of Truth (2008) HDRip от Generalfilm | КПК | ТВ3 скачать торрент бесплатно




    Звёздные Врата: Ковчег Истины / Stargate: The Ark of Truth (2008) HDRip от Generalfilm | КПК | ТВ3 скачать торрент бесплатно

    Опубликовал: Админ | Дата: 27-02-2015, 11:09 | Просмотров: 451



    Информация о фильме
    Название: Звёздные Врата: Ковчег Истины
    Оригинальное название: Stargate: The Ark of Truth
    Год выхода: 2008
    Жанр: Фантастика, фэнтези, приключения
    Режиссер: Роберт С. Купер
    В ролях: Бен Браудер, Аманда Таппинг, Кристофер Джадж, Майкл Шэнкс, Бо Бриджес, Клаудия Блэк, Карри Грэм, Морена Баккарин, Тим Гини, Джулиан Сэндс

    О фильме:
    Как мы помним, в 10 сезоне сериала команде ЗВ-1 удалось отправить в галактику Орайев прибор Мерлина и уничтожить всех вознёсшихся. Но остановились ли их последователи? Нет. Армия, возглавляемая приорами, продолжает уничтожать свободомыслящее население нашей Галактики. Пытаясь остановить вторжение, ЗВ-1 начинает поиски Ковчега Истины, мощного артефакта Древних, который они создали 10 тысяч лет назад, но так и не решились использовать. Отчаявшись найти ковчег, повсеместно встречая сопротивление армии Орайев, ЗВ-1 неожиданно находит союзника. Томин помогает Даниелю Джексону определить местоположения Ковчега. На его поиски ЗВ-1 отправляется в галактику Орайев. Но представитель Международного комитета начинает осуществлять свой план... Сумеет ли ЗВ-1 снова спасти Землю, остановив армии религиозных фанатиков и бездушных роботов репликаторов? Захватывающий сюжет, логично вытекающий из 10 сезона сериала, любимые актеры, не оставят равнодушными поклонников Звездных врат. Хорошая точка 12-ти летнего рассказа о команде ЗВ-1. Надеюсь мы ещё встретим любимых героев в будущем.



    Страна: Канада, США
    Студия: Metro-Goldwyn-Mayer (MGM)
    Продолжительность: 01:41:51
    Перевод: Профессиональный (многоголосый, закадровый) ТВ3

    Файл
    Формат: MP4
    Качество: HDRip | КПК
    Видео: MPEG-4 AVC (x264), 640x272, ~500 kbps, 23.976 fps
    Аудио: AAC LC, 48.0 KHz, 2 ch, 128 Kbps
    Субтитры: Нет

    Семпл

    Скриншоты

    MI
    K:киноZvjozdnye.Vrata.AVC.KPK.GeneralfilmZvjozdnye.Vrata.Kovcheg.Istiny.2008.AVC.HDRip.KPK.Generalfilm.mp4
    Format : MPEG-4
    Format profile : Base Media
    Codec ID : isom
    File size : 459 MiB
    Duration : 1h 41mn
    Overall bit rate mode : Variable
    Overall bit rate : 631 Kbps
    Encoded date : UTC 2013-09-04 15:29:43
    Tagged date : UTC 2013-09-04 15:29:43
    Video #1
    ID : 1
    Format : AVC
    Format/Info : Advanced Video Codec
    Format profile : Baseline@L4.1
    Format settings, CABAC : No
    Format settings, ReFrames : 6 frames
    Codec ID : avc1
    Codec ID/Info : Advanced Video Coding
    Duration : 1h 41mn
    Bit rate : 500 Kbps
    Maximum bit rate : 3 446 Kbps
    Width : 640 pixels
    Height : 360 pixels
    Display aspect ratio : 16:9
    Frame rate mode : Constant
    Frame rate : 23.976 fps
    Color space : YUV
    Chroma subsampling : 4:2:0
    Bit depth : 8 bits
    Scan type : Progressive
    Bits/(Pixel*Frame) : 0.091
    Stream size : 364 MiB (79%)
    Writing library : x264 core 116 r2074 2641b9e
    Encoding settings : cabac=0 / ref=6 / deblock=1:-1:-1 / analyse=0x1:0x111 / me=umh / subme=7 / psy=1 / psy_rd=1.00:0.00 / mixed_ref=0 / me_range=16 / chroma_me=1 / trellis=1 / 8x8dct=0 / cqm=0 / deadzone=21,11 / fast_pskip=0 / chroma_qp_offset=-2 / threads=3 / sliced_threads=0 / nr=0 / decimate=1 / interlaced=0 / bluray_compat=0 / constrained_intra=0 / bframes=0 / weightp=0 / keyint=250 / keyint_min=23 / scenecut=40 / intra_refresh=0 / rc_lookahead=60 / rc=2pass / mbtree=1 / bitrate=500 / ratetol=1.0 / qcomp=0.60 / qpmin=0 / qpmax=69 / qpstep=4 / cplxblur=20.0 / qblur=0.5 / ip_ratio=1.40 / aq=1:1.00
    Encoded date : UTC 2013-09-04 15:29:43
    Tagged date : UTC 2013-09-04 15:31:25
    Audio #2
    ID : 2
    Format : AAC
    Format/Info : Advanced Audio Codec
    Format profile : LC
    Codec ID : 40
    Duration : 1h 41mn
    Bit rate mode : Variable
    Bit rate : 128 Kbps
    Maximum bit rate : 177 Kbps
    Channel(s) : 2 channels
    Channel positions : Front: L R
    Sampling rate : 48.0 KHz
    Compression mode : Lossy
    Stream size : 93.2 MiB (20%)
    Encoded date : UTC 2013-09-04 15:31:18
    Tagged date : UTC 2013-09-04 15:31:25

    Релиз от:
    Залил: toys_watch
    Размер: 459.38 MB (481692322 Bytes)
    загрузка...
    Рейтинг →
     (голосов: 1, оценка 3/5, голосовать можно 1 раз )

    Другие торренты по теме:

  • Звёздные Врата: Атлантида / Stargate: Atlantis (2004-2009) WEB-DL 720p


    • Комментарии (0):

      Информация

      Информация

        Посетители, находящиеся в группе Гости, не могут оставлять комментарии в данной новости.

        ↓ Меню



        ↓ Опрос

        А Вы добавили сайт в закладки?
        Да
        Не


        Top 10 за месяц (Фильмы)