.
Авторизация | Регистрация
Хочешь лучшие торренты? Добавь свой email!
Добавить
» » Звездные врата: Континуум / Stargate: Continuum (2008) HDRip от Generalfilm | КПК | ТВ3 скачать торрент бесплатно




    Звездные врата: Континуум / Stargate: Continuum (2008) HDRip от Generalfilm | КПК | ТВ3 скачать торрент бесплатно

    Опубликовал: Админ | Дата: 27-02-2015, 11:09 | Просмотров: 644



    Информация о фильме
    Название: Звездные врата: Континуум
    Оригинальное название: Stargate: Continuum
    Год выхода: 2008
    Жанр: Фантастика, фэнтези, боевик, приключения
    Режиссер: Мартин Вуд
    В ролях: Бен Браудер, Аманда Таппинг, Кристофер Джадж, Майкл Шанкс, Бо Бриджес, Клаудия Блэк, Ричард Дин Андерсон, Уильям Дивэйн, Клифф Саймон, Дон С. Дэвис, Стив Бачич, Гари Джонс, Дэн Ши, Элисон Мэтьюз, Адриан Хьюз, Жаклин Бечер, Майкл Розелли, Жаклин Самуда, Питер Уильямс, П.Дж. Принсло, Жан Дэйгл, Дэвид Кэй, Риз Александр, О.Л. Брамбл, Джейсон Бенсон, Керстен Уильямсон, Винс Крестеджо, Джей Уильямс, Майкл Берначчи, Брэд Райт, Кэмпбелл Лэйн, Роберт Бойс, Колин Каннингэм, Джейсон М. Геддес, Чарльз Коэн, Трэйси Трумен, Бэрр

    О фильме:
    Пока команда SG-1 пытается уничтожить Боала, последнего лорда гуаулдов, Тил’к и Вала загадочным образом исчезают. Картер, Дэниел и Митчелл понимают, что был нарушен временной континуум и программа по исследованию звездных врат стерлась из истории. Герои пробуют донести свою непростую мысль до властей, но на орбиту прибывают крейсеры гоаулдов во главе с Ба’алом, королевой Катеш и премьер-министром Тил’ком. Команде SG-1 нужно найти звездные врата и восстановить правильный ход вещей прежде, чем мир будет порабощен захватчиками.



    Страна: США, Канада,
    Студия: Metro-Goldwyn-Mayer (MGM), Acme Shark, Kawoosh! Productions DTV II, MGM Global Holdings
    Продолжительность: 01:38:35
    Перевод: Профессиональный (многоголосый, закадровый) ТВ3

    Файл
    Формат: MP4
    Качество: HDRip | КПК
    Видео: MPEG-4 AVC (x264), 640x272, ~500 kbps, 23.976 fps
    Аудио: AAC LC, 48.0 KHz, 2 ch, 128 Kbps
    Субтитры: Нет

    Семпл

    Скриншоты

    MI
    K:киноZvjozdnye.Vrata.AVC.KPK.GeneralfilmZvjozdnye.Vrata.Kontinuum.2008.AVC.HDRip.KPK.Generalfilm.mp4
    Format : MPEG-4
    Format profile : Base Media
    Codec ID : isom
    File size : 445 MiB
    Duration : 1h 38mn
    Overall bit rate mode : Variable
    Overall bit rate : 630 Kbps
    Encoded date : UTC 2013-09-06 19:50:40
    Tagged date : UTC 2013-09-06 19:50:40
    Video #1
    ID : 1
    Format : AVC
    Format/Info : Advanced Video Codec
    Format profile : Baseline@L4.1
    Format settings, CABAC : No
    Format settings, ReFrames : 6 frames
    Format settings, GOP : N=1
    Codec ID : avc1
    Codec ID/Info : Advanced Video Coding
    Duration : 1h 38mn
    Bit rate : 500 Kbps
    Maximum bit rate : 2 176 Kbps
    Width : 640 pixels
    Height : 360 pixels
    Display aspect ratio : 16:9
    Frame rate mode : Constant
    Frame rate : 23.976 fps
    Color space : YUV
    Chroma subsampling : 4:2:0
    Bit depth : 8 bits
    Scan type : Progressive
    Bits/(Pixel*Frame) : 0.091
    Stream size : 352 MiB (79%)
    Writing library : x264 core 116 r2074 2641b9e
    Encoding settings : cabac=0 / ref=6 / deblock=1:-1:-1 / analyse=0x1:0x111 / me=umh / subme=7 / psy=1 / psy_rd=1.00:0.00 / mixed_ref=0 / me_range=16 / chroma_me=1 / trellis=1 / 8x8dct=0 / cqm=0 / deadzone=21,11 / fast_pskip=0 / chroma_qp_offset=-2 / threads=3 / sliced_threads=0 / nr=0 / decimate=1 / interlaced=0 / bluray_compat=0 / constrained_intra=0 / bframes=0 / weightp=0 / keyint=250 / keyint_min=23 / scenecut=40 / intra_refresh=0 / rc_lookahead=60 / rc=2pass / mbtree=1 / bitrate=500 / ratetol=1.0 / qcomp=0.60 / qpmin=0 / qpmax=69 / qpstep=4 / cplxblur=20.0 / qblur=0.5 / ip_ratio=1.40 / aq=1:1.00
    Encoded date : UTC 2013-09-06 19:50:40
    Tagged date : UTC 2013-09-06 19:51:07
    Audio #2
    ID : 2
    Format : AAC
    Format/Info : Advanced Audio Codec
    Format profile : LC
    Codec ID : 40
    Duration : 1h 38mn
    Bit rate mode : Variable
    Bit rate : 128 Kbps
    Maximum bit rate : 153 Kbps
    Channel(s) : 2 channels
    Channel positions : Front: L R
    Sampling rate : 48.0 KHz
    Compression mode : Lossy
    Stream size : 90.2 MiB (20%)
    Encoded date : UTC 2013-09-06 19:51:01
    Tagged date : UTC 2013-09-06 19:51:07

    Релиз от:
    Залил: toys_watch
    Размер: 444.55 MB (466146046 Bytes)
    загрузка...
    Рейтинг →
     (голосов: 1, оценка 3/5, голосовать можно 1 раз )

    Другие торренты по теме:

  • Звездные врата / Stargate (1994) BDRip-AVC | P | Режиссёрская версия / Directors Cut
  • Звездные врата: Вселенная / Stargate Universe (2009-2011) WEB-DLRip | ТВ3
  • Звездные врата / Stargate (1994) HDRip от Generalfilm | КПК | Directors Cut
  • Звездные врата ЗВ-1 / Stargate SG-1 (1997-1998) DVDRip от Generalfilm | КПК | ТВ3
  • Звездные врата ЗВ-1 / Stargate SG-1 (2005-2006) WEB-DLRip от Generalfilm | КПК | ТВ3
  • Звездные врата ЗВ-1 / Stargate SG-1 (2006-2007) WEB-DLRip от Generalfilm | КПК | ТВ3
  • Звездные врата: Атлантида / Stargate: Atlantis (2004-2005) HDRip от Generalfilm | КПК | ТВ3
  • Звездные врата: Атлантида / Stargate: Atlantis (2005-2006) HDRip от Generalfilm | КПК | ТВ3


    • Комментарии (0):

      Информация

      Информация

        Посетители, находящиеся в группе Гости, не могут оставлять комментарии в данной новости.

        ↓ Меню



        ↓ Опрос

        А Вы добавили сайт в закладки?
        Да
        Не


        Top 10 за месяц (Фильмы)