.
Авторизация | Регистрация
Хочешь лучшие торренты? Добавь свой email!
Добавить
» » Дорога цвета крови / A Road Stained Crimson / Akai Kisetsu (2012) DVDRip | L1 скачать торрент бесплатно




    Дорога цвета крови / A Road Stained Crimson / Akai Kisetsu (2012) DVDRip | L1 скачать торрент бесплатно

    Опубликовал: Админ | Дата: 27-02-2015, 11:09 | Просмотров: 365



    Информация о фильме
    Название: Дорога цвета крови
    Оригинальное название: A Road Stained Crimson / Akai Kisetsu
    Год выхода: 2012
    Жанр: драма
    Режиссер: Тецухико Ноно
    В ролях: Хирофуми Арай, Рёмей Ниинобу, Дзюн Мураками, Юсуке Чиба, Джан Фубуки, Акинобу Имаи, Сигеру Изумия, Масатоси Нагасэ, Томорово Тагути

    О фильме:
    Кен - бывший наемный убийца, который пытается жить нормальной жизнью, работая в мастерской по ремонту мотоциклов. Он желает лишь одного — жить спокойно и работать со своей напарницей Йоко. Но все изменилось, когда однажды, в мастерскую приезжает Акира — давнишний приятель Кена, также наемный убийца. Акира начинает часто навещать Кена в надежде вернуть его к прежней работе. Терзаемый грузом прошлого и неопределенностью будущего, Кен решает отправиться в заброшенную хижину, его бывшее укрытие, где неожиданно находит нечто, способное приоткрыть завесу таинственной гибели его отца, бывшего полицейского…




    Страна: Япония
    Студия: Nikkatsu
    Продолжительность: 01:50:33
    Перевод: Любительский одноголосый (закадровый) Синхито

    Файл
    Кодек: XviD
    Качество: DVDRip
    Видео: 720x384, 1376 kbps, 23,976 fps, 0,208 Bits/(Pixel*Frame)
    Звук:
    AC3, 48 kHz, 192 kbps, 2 ch - русский
    AC3, 48 kHz, 192 kbps, 2 ch - japanese
    Субтитры: Нет

    Релиз от:

    Автор рипа: _Bathory_

    Скриншоты

    MediaInfo
    General
    Complete name : H:Akai.Kisetsu.2012.DVDRip.avi
    Format : AVI
    Format/Info : Audio Video Interleave
    File size : 1.37 GiB
    Duration : 1h 50mn
    Overall bit rate : 1 771 Kbps

    Video
    ID : 0
    Format : MPEG-4 Visual
    Format profile : Advanced Simple@L5
    Format settings, BVOP : 2
    Format settings, QPel : No
    Format settings, GMC : No warppoints
    Format settings, Matrix : Default (H.263)
    Codec ID : XVID
    Codec ID/Hint : XviD
    Duration : 1h 50mn
    Bit rate : 1 376 Kbps
    Width : 720 pixels
    Height : 384 pixels
    Display aspect ratio : 1.85:1
    Frame rate : 23.976 fps
    Color space : YUV
    Chroma subsampling : 4:2:0
    Bit depth : 8 bits
    Scan type : Progressive
    Compression mode : Lossy
    Bits/(Pixel*Frame) : 0.208
    Stream size : 1.06 GiB (78%)
    Writing library : XviD 1.2.1 (UTC 2008-12-04)

    Audio #1
    ID : 1
    Format : AC-3
    Format/Info : Audio Coding 3
    Mode extension : CM (complete main)
    Format settings, Endianness : Big
    Codec ID : 2000
    Duration : 1h 50mn
    Bit rate mode : Constant
    Bit rate : 192 Kbps
    Channel(s) : 2 channels
    Channel positions : Front: L R
    Sampling rate : 48.0 KHz
    Bit depth : 16 bits
    Compression mode : Lossy
    Stream size : 152 MiB (11%)
    Alignment : Aligned on interleaves
    Interleave, duration : 64 ms (1.53 video frames)
    Interleave, preload duration : 192 ms
    Title : VTS_04_1 T80 3_2ch 448Kbps DELAY 0ms_new

    Audio #2
    ID : 2
    Format : AC-3
    Format/Info : Audio Coding 3
    Mode extension : CM (complete main)
    Format settings, Endianness : Big
    Codec ID : 2000
    Duration : 1h 50mn
    Bit rate mode : Constant
    Bit rate : 192 Kbps
    Channel(s) : 2 channels
    Channel positions : Front: L R
    Sampling rate : 48.0 KHz
    Bit depth : 16 bits
    Compression mode : Lossy
    Stream size : 152 MiB (11%)
    Alignment : Aligned on interleaves
    Interleave, duration : 64 ms (1.53 video frames)
    Interleave, preload duration : 192 ms
    Title : VTS_04_1 T82 2_0ch 224Kbps DELAY 0ms_new


    Залил: _Bathory_
    Размер: 1.37 GB (1468324580 Bytes)
    загрузка...
    Рейтинг →
     (голосов: 1, оценка 5/5, голосовать можно 1 раз )

    Другие торренты по теме:

  • Дорога, дорога домой / The Way Way Back (2013) BDRip-AVC от MediaClub | Sub скачать через торрент бесплатно
  • Дорога, дорога домой / The Way Way Back (2013) HDRip | L1 скачать через торрент бесплатно
  • Дорога, дорога домой / The Way Way Back (2013) BDRip 1080p от CINEMANIA | L1
  • Дорога, дорога домой / The Way Way Back (2013) BDRip 720p от CINEMANIA | L1
  • Дорога, дорога домой / The Way Way Back (2013) HDRip от Scarabey
  • Дорога, дорога домой / The Way Way Back (2013) BDRip 720p от CINEMANIA | L, L1
  • Дорога, дорога домой / The Way Way Back (2013) BDRip 1080p от CINEMANIA | L, L1
  • Дорога, дорога домой / The Way Way Back (2013) HDRip | L


    • Комментарии (0):

      Информация

      Информация

        Посетители, находящиеся в группе Гости, не могут оставлять комментарии в данной новости.

        ↓ Меню



        ↓ Опрос

        А Вы добавили сайт в закладки?
        Да
        Не


        Top 10 за месяц (Фильмы)