.
Авторизация | Регистрация
Хочешь лучшие торренты? Добавь свой email!
Добавить
» » Шесть демонов Эмили Роуз / The Exorcism of Emily Rose (2005) DVD5 | D скачать торрент бесплатно




    Шесть демонов Эмили Роуз / The Exorcism of Emily Rose (2005) DVD5 | D скачать торрент бесплатно

    Опубликовал: Админ | Дата: 27-02-2015, 11:09 | Просмотров: 272



    Информация о фильме
    Название: Шесть демонов Эмили Роуз
    Оригинальное название: The Exorcism of Emily Rose
    Год выхода: 2005
    Жанр: ужасы, триллер, драма, криминал
    Режиссер: Скотт Дерриксон
    В ролях: Лора Линни, Том Уилкинсон, Кэмпбелл Скотт, Дженнифер Карпентер, Колм Фиор, Джошуа Клоуз, Кеннет Уэлш, Дункан Фрайзер, ДжейАр Борн, Мэри Бет Хёрт

    О фильме:
    Фильм основан на реальных событиях. В 1976 году сеанс изгнания дьявола из молодой девушки закончился ее смертью. Священнику-экзорцисту, проводившему обряд, было предъявлено обвинение в убийстве, хотя процесс был официально инициирован католической церковью.

    В поиске справедливости священник изучает историю появления на земле демона, погубившего девушку, и пытается доказать в суде факт существования потусторонних сил и их способность вмешиваться в жизнь людей…




    Страна: США
    Студия: Lakeshore Entertainment, Screen Gems
    Продолжительность: 122 мин. / 02:02
    Перевод: профессиональный (полное дублирование)
    Оригинальная дорожка: отсутствует

    Файл
    Кодек: MPEG2
    Качество: DVD5
    Видео: PAL 16:9 (720x576) 25.000 fps, 4788 Kbps
    Звук: Dolby AC3, 6 ch, 48.0 KHz, 448 Kbps
    Субтитры: отсутствуют

    MediaInfo
    General
    Complete name : E:Demony Emili RouzVIDEO_TSVTS_03_1.VOB
    Format : MPEG-PS
    File size : 1 024 MiB
    Duration : 26mn 47s
    Overall bit rate : 5 342 Kbps
    Writing library : encoded by TMPGEnc (ver. 2.521.58.169)

    Video
    ID : 224 (0xE0)
    Format : MPEG Video
    Format version : Version 2
    Format profile : Main@Main
    Format settings, BVOP : No
    Format settings, Matrix : Custom
    Format settings, GOP : M=3, N=13
    Duration : 26mn 47s
    Bit rate : 4 788 Kbps
    Width : 720 pixels
    Height : 576 pixels
    Display aspect ratio : 16:9
    Frame rate : 25.000 fps
    Standard : PAL
    Color space : YUV
    Chroma subsampling : 4:2:0
    Bit depth : 8 bits
    Compression mode : Lossy
    Bits/(Pixel*Frame) : 0.462
    Stream size : 918 MiB (90%)
    Writing library : TMPGEnc 2.521.58.169
    Color primaries : BT.601 PAL
    Transfer characteristics : BT.470 System B, BT.470 System G
    Matrix coefficients : FCC 73.682

    Audio
    ID : 189 (0xBD)-128 (0x80)
    Format : AC-3
    Format/Info : Audio Coding 3
    Mode extension : CM (complete main)
    Format settings, Endianness : Big
    Muxing mode : DVD-Video
    Duration : 26mn 47s
    Bit rate mode : Constant
    Bit rate : 448 Kbps
    Channel(s) : 6 channels
    Channel positions : Front: L C R, Side: L R, LFE
    Sampling rate : 48.0 KHz
    Bit depth : 16 bits
    Compression mode : Lossy
    Delay relative to video : -50ms
    Stream size : 85.9 MiB (8%)

    Menu

    Скриншоты

    Залил: carisha
    Размер: 4.36 GB (4686784512 Bytes)
    загрузка...
    Рейтинг →
     (голосов: 1, оценка 3/5, голосовать можно 1 раз )

    Другие торренты по теме:

  • Шесть демонов Эмили Роуз / The Exorcism of Emily Rose (2005) HDRip-AVC | Расширенная версия
  • Шесть демонов Эмили Роуз / The Exorcism of Emily Rose (2005) BDRip 1080p от NoLimits-Team FireBit-Films | Unrated
  • Шесть демонов Эмили Роуз / The Exorcism Of Emily Rose (2005) HDRip | D | Театральная версия
  • OST - Шесть демонов Эмили Роуз / The Exorcism Of Emily Rose (2005) MP3 скачать через торрент бесплатно
  • Шесть демонов Эмили Роуз / The Exorcism of Emily Rose (2005) BDRip-AVC | Расширенная версия
  • Шесть демонов Эмили Роуз / The Exorcism of Emily Rose (2005) BDRip-AVC от MediaClub | D, P | Расширенная версия скачать через торрент бесплатно


    • Комментарии (0):

      Информация

      Информация

        Посетители, находящиеся в группе Гости, не могут оставлять комментарии в данной новости.

        ↓ Меню



        ↓ Опрос

        А Вы добавили сайт в закладки?
        Да
        Не


        Top 10 за месяц (Фильмы)