.
Авторизация | Регистрация
Хочешь лучшие торренты? Добавь свой email!
Добавить
» » Властелин любви / The Look of Love (2013) BDRip от Rulya74 скачать торрент бесплатно




    Властелин любви / The Look of Love (2013) BDRip от Rulya74 скачать торрент бесплатно

    Опубликовал: Админ | Дата: 27-02-2015, 11:09 | Просмотров: 295

    Властелин любви / The Look of Love (2013) BDRip



    Информация о фильме
    Название: Властелин любви
    Оригинальное название: The Look of Love
    Год выхода: 2013
    Жанр: драма, комедия, биография
    Режиссер: Майкл Уинтерботтом

    В ролях: Стив Куган, Анна Фрил, Имоджен Путс, Тэмсин Эгертон, Крис Эддисон, Джеймс Лэнс, Ширли Хендерсон, Дэвид Уоллиамс, Мэтт Лукас, Стивен Фрай, Саймон Бёрд

    О фильме: Пауль Раймонд был прозван в прессе Королём Сохо из-за принадлежащего ему огромного клуба и невероятного количества недвижимого имущества, что наряду с его порнобизнесом принесло ему состояние в миллиарды фунтов.



    Страна: Великобритания, США
    Продолжительность: 01:41:01
    Перевод: Дублированный, Оригинал (Английский)

    Файл
    Кодек: XviD
    Качество: BDRip
    Видео: 720x304 (2.37:1), 24 fps, 2061 kbps, 0.392 bit/pixel
    Аудио #1: 48 kHz, AC3 Dolby Digital, 3/2 (L,C,R,l,r) LFE ch, ~384 kbps (Русский)
    Аудио #2: 48 kHz, AC3 Dolby Digital, 3/2 (L,C,R,l,r) LFE ch, ~448 kbps (Английский)
    Субтитры: Английские (внешние)
    Сэмпл



    MediaInfo
    Общее
    Полное имя : D:The Look of Love.2013.BDRipThe Look of Love.2013.BDRip.avi
    Формат : AVI
    Формат/Информация : Audio Video Interleave
    Профиль формата : OpenDML
    Размер файла : 2,05 Гбайт
    Продолжительность : 1 ч. 41 м.
    Общий поток : 2911 Кбит/сек
    Программа кодирования : VirtualDubModRus 1.5.10.2 (build 2542/release)
    Библиотека кодирования : VirtualDubMod build 2542/release

    Видео
    Идентификатор : 0
    Формат : MPEG-4 Visual
    Профиль формата : Advanced Simple@L5
    Параметр BVOP формата : 1
    Параметр QPel формата : Нет
    Параметр GMC формата : Без точки перехода
    Параметр матрицы формата : Выборочная
    Режим смешивания : Сжатый битовый поток
    Идентификатор кодека : XVID
    Идентификатор кодека/Подсказка : XviD
    Продолжительность : 1 ч. 41 м.
    Битрейт : 2061 Кбит/сек
    Ширина : 720 пикселей
    Высота : 304 пикселя
    Соотношение сторон : 2,35:1
    Частота кадров : 24,000 кадра/сек
    Цветовое пространство : YUV
    Субдискретизация насыщенности : 4:2:0
    Битовая глубина : 8 бит
    Тип развёртки : Прогрессивная
    Метод сжатия : С потерями
    Бит/(Пиксели*Кадры) : 0.392
    Размер потока : 1,45 Гбайт (71%)
    Библиотека кодирования : XviD 73

    Аудио #1
    Идентификатор : 1
    Формат : AC-3
    Формат/Информация : Audio Coding 3
    Расширение режима : CM (complete main)
    Параметр Endianness формата : Big
    Идентификатор кодека : 2000
    Продолжительность : 1 ч. 41 м.
    Вид битрейта : Постоянный
    Битрейт : 384 Кбит/сек
    Каналы : 6 каналов
    Расположение каналов : Front: L C R, Side: L R, LFE
    Частота : 48,0 КГц
    Битовая глубина : 16 бит
    Метод сжатия : С потерями
    Размер потока : 277 Мбайт (13%)
    Выравнивание : Разделение по промежуткам
    Продолжительность промежутка : 42 мс. (1,00 видеокадр)
    Время предзагрузки промежутка : 500 мс.
    Заголовок : Дублированный

    Аудио #2
    Идентификатор : 2
    Формат : AC-3
    Формат/Информация : Audio Coding 3
    Расширение режима : CM (complete main)
    Параметр Endianness формата : Big
    Идентификатор кодека : 2000
    Продолжительность : 1 ч. 41 м.
    Вид битрейта : Постоянный
    Битрейт : 448 Кбит/сек
    Каналы : 6 каналов
    Расположение каналов : Front: L C R, Side: L R, LFE
    Частота : 48,0 КГц
    Битовая глубина : 16 бит
    Метод сжатия : С потерями
    Размер потока : 324 Мбайт (15%)
    Выравнивание : Разделение по промежуткам
    Продолжительность промежутка : 42 мс. (1,00 видеокадр)
    Время предзагрузки промежутка : 500 мс.
    Заголовок : Оригинал (Английский)
    Скриншоты



    Залил: Rulya74
    Размер: 2.05 GB (2206278924 Bytes)
    загрузка...
    Рейтинг →
     (голосов: 1, оценка 4/5, голосовать можно 1 раз )

    Другие торренты по теме:

  • Властелин любви / The Look of Love (2013) HDRip-AVC | Лицензия
  • Властелин любви / The Look of Love (2013) HDRip от Youtracker | D | лицензия
  • Властелин любви / The Look of Love (2013) BDRip 1080p от Youtracker | D | лицензия
  • Властелин любви / The Look of Love (2013) BDRip 720p от Youtracker | D | лицензия
  • Властелин любви / The Look of Love (2013) HDRip-AVC от Youtracker | D | лицензия
  • Властелин любви / The Look of Love (2013) DVD5 R5 от Youtracker | D | лицензия
  • Властелин любви / The Look of Love (2013) HDRip от -=HD-NET=- | КПК
  • Властелин любви / The Look of Love (2013) BDRip-AVC от HELLYWOOD | D | Лицензия


    • Комментарии (0):

      Информация

      Информация

        Посетители, находящиеся в группе Гости, не могут оставлять комментарии в данной новости.

        ↓ Меню



        ↓ Опрос

        А Вы добавили сайт в закладки?
        Да
        Не


        Top 10 за месяц (Фильмы)