.
Авторизация | Регистрация
Хочешь лучшие торренты? Добавь свой email!
Добавить
» » Простые люди / Simple Men (1992) BDRip от Rulya74 скачать торрент бесплатно




    Простые люди / Simple Men (1992) BDRip от Rulya74 скачать торрент бесплатно

    Опубликовал: Админ | Дата: 27-02-2015, 11:09 | Просмотров: 320

    Простые люди / Simple Men (1992) BDRip



    Информация о фильме
    Название: Простые люди
    Оригинальное название: Simple Men
    Год выхода: 1992
    Жанр: драма, мелодрама, комедия, криминал, детектив, приключения
    Режиссер: Хэл Хартли

    В ролях: Роберт Джон Бёрк, Билл Сейдж, Карен Сайлас, Элина Ловенсон, Мартин Донован, Марк Чандлер Бэйли, Крис Кук, Джеффри Ховард, Холли Мари Комбс, Джо Стивенс

    О фильме: Совершенно безобидный Дэннис и его столь же опасный брат Билл решают проведать своего отца, который отбывает срок за то, что стал революционером и пытался взорвать Пентагон. Но это будет не так-то просто: папаша ударился в бега, и теперь братьям придется искать его наперегонки с полицией.

    Заодно Билл намерен мстить женщинам, от которых у него по жизни сплошные проблемы. Справятся ли Билл и Дэннис с самой важной миссией в своей жизни, или на пути, который они выбрали, их ждет пара извилистых поворотов?



    Страна: Италия, Великобритания, США
    Продолжительность: 01:44:58
    Перевод: Профессиональный (многоголосый закадровый), Профессиональный (двухголосый закадровый), Оригинал (Английский)

    Файл
    Кодек: XviD
    Качество: BDRip (источник: hdclub / alextar / BDRemux / 1080p)
    Видео: 720x400 (1.80:1), 23.976 fps, 1354 kbps, 0.196 bit/pixel
    Аудио #1: 48 kHz, AC3 Dolby Digital, 2/0 (L,R) ch, ~224.00 kbps (Многоголосый)
    Аудио #2: 48 kHz, AC3 Dolby Digital, 2/0 (L,R) ch, ~192.00 kbps (Двухголосый)
    Аудио #3: 48 kHz, AC3 Dolby Digital, 2/0 (L,R) ch, ~192.00 kbps (Оригинал)
    Субтитры: Русские, Английские (внешние)



    MediaInfo
    Общее
    Полное имя : D:TorrentSimple Men.1992.BDRipSimple Men.1992.BDRip.avi
    Формат : AVI
    Формат/Информация : Audio Video Interleave
    Размер файла : 1,45 Гбайт
    Продолжительность : 1 ч. 44 м.
    Общий поток : 1981 Кбит/сек
    Название фильма : Simple Men.1992.BDRip rip by Rulya74
    Программа кодирования : VirtualDubModRus 1.5.10.2 (build 2542/release)

    Видео
    Идентификатор : 0
    Формат : MPEG-4 Visual
    Профиль формата : Advanced Simple@L5
    Параметр BVOP формата : 1
    Параметр QPel формата : Нет
    Параметр GMC формата : Без точки перехода
    Параметр матрицы формата : Выборочная
    Режим смешивания : Сжатый битовый поток
    Идентификатор кодека : XVID
    Идентификатор кодека/Подсказка : XviD
    Продолжительность : 1 ч. 44 м.
    Битрейт : 1354 Кбит/сек
    Ширина : 720 пикселей
    Высота : 400 пикселей
    Соотношение сторон : 16:9
    Частота кадров : 23,976 кадра/сек
    Цветовое пространство : YUV
    Субдискретизация насыщенности : 4:2:0
    Битовая глубина : 8 бит
    Тип развёртки : Прогрессивная
    Метод сжатия : С потерями
    Бит/(Пиксели*Кадры) : 0.196
    Размер потока : 1017 Мбайт (68%)
    Библиотека кодирования : XviD 73

    Аудио #1
    Идентификатор : 1
    Формат : AC-3
    Формат/Информация : Audio Coding 3
    Расширение режима : CM (complete main)
    Параметр Endianness формата : Big
    Идентификатор кодека : 2000
    Продолжительность : 1 ч. 44 м.
    Вид битрейта : Постоянный
    Битрейт : 224 Кбит/сек
    Каналы : 2 канала
    Расположение каналов : Front: L R
    Частота : 48,0 КГц
    Битовая глубина : 16 бит
    Метод сжатия : С потерями
    Размер потока : 168 Мбайт (11%)
    Выравнивание : Разделение по промежуткам
    Продолжительность промежутка : 42 мс. (1,00 видеокадр)
    Время предзагрузки промежутка : 500 мс.
    Заголовок : Профессиональный (многоголосый закадровый)

    Аудио #2
    Идентификатор : 2
    Формат : AC-3
    Формат/Информация : Audio Coding 3
    Расширение режима : CM (complete main)
    Параметр Endianness формата : Big
    Идентификатор кодека : 2000
    Продолжительность : 1 ч. 44 м.
    Вид битрейта : Постоянный
    Битрейт : 192 Кбит/сек
    Каналы : 2 канала
    Расположение каналов : Front: L R
    Частота : 48,0 КГц
    Битовая глубина : 16 бит
    Метод сжатия : С потерями
    Размер потока : 144 Мбайт (10%)
    Выравнивание : Разделение по промежуткам
    Продолжительность промежутка : 42 мс. (1,00 видеокадр)
    Время предзагрузки промежутка : 500 мс.
    Заголовок : Профессиональный (двухголосый закадровый)

    Аудио #3
    Идентификатор : 3
    Формат : AC-3
    Формат/Информация : Audio Coding 3
    Расширение режима : CM (complete main)
    Параметр Endianness формата : Big
    Идентификатор кодека : 2000
    Продолжительность : 1 ч. 44 м.
    Вид битрейта : Постоянный
    Битрейт : 192 Кбит/сек
    Каналы : 2 канала
    Расположение каналов : Front: L R
    Частота : 48,0 КГц
    Битовая глубина : 16 бит
    Метод сжатия : С потерями
    Размер потока : 144 Мбайт (10%)
    Выравнивание : Разделение по промежуткам
    Продолжительность промежутка : 42 мс. (1,00 видеокадр)
    Время предзагрузки промежутка : 500 мс.
    Заголовок : Оригинал (Английский)
    Скриншоты


    Залил: Rulya74
    Размер: 1.45 GB (1560282568 Bytes)
    загрузка...
    Рейтинг →
     (голосов: 1, оценка 3/5, голосовать можно 1 раз )

    Другие торренты по теме:

  • Простые люди / Simple Men (1992) BDRip от MediaClub | P
  • Простые люди / 1945 / РУ / DVD-5
  • Простые люди / Simple Men (1992) BDRip 1080p | P, P2


    • Комментарии (0):

      Информация

      Информация

        Посетители, находящиеся в группе Гости, не могут оставлять комментарии в данной новости.

        ↓ Меню



        ↓ Опрос

        А Вы добавили сайт в закладки?
        Да
        Не


        Top 10 за месяц (Фильмы)