.
Авторизация | Регистрация
Хочешь лучшие торренты? Добавь свой email!
Добавить
» » Принц города / Prince of the City (1981) DVDRip скачать торрент бесплатно




    Принц города / Prince of the City (1981) DVDRip скачать торрент бесплатно

    Опубликовал: Админ | Дата: 27-02-2015, 11:09 | Просмотров: 360






    Страна: США
    Производство: Orion Pictures Corporation
    Жанр: Триллер, драма
    Год выпуска:

    Продолжительность: 02:40:30


    Перевод: Авторский (Михалев)

    Оригинальная аудиодорожка: Английская

    Cубтитры: Нет


    Режиссер: Сидни Люмет


    В ролях: Трит Уильямс, Джерри Орбах, Ричард Форонджи, Дон Биллет, Кенни Марино, Кармине Кариди, Энтони Пейдж, Норман Паркер, Пол Роублинг, Боб Бэлабан, Лэнс Хенриксен




    Описание: Детектив Дэнни Чиелло из специального отряда по борьбе с наркотиками нью-йоркского департамента полиции — один из тех, кого называют Принцем Города. Он — неприкасаемый элитный коп, профессионал, которому, как говорится, море по колено. Дэнни знает о том, что многие из его коллег берут деньги, и решает сделать то, что обязан сделать любой честный служитель закона: рассказать правду. Но для этого ему придется предать своих друзей и напарников…

    Исходник: DVD5 R2

    Тип релиза: DVDRip

    Контейнер: AVI


    Видео: 704x384 (1.83:1), 23.976 fps, XviD ~1542 kbps avg, 0.24 bit/pixel
    Аудио: #1: 48 kHz, AC3 2.0, ~192.00 kbps avg (RUS)
    Аудио: #2: 48 kHz, AC3 2.0, ~192.00 kbps avg (ENG)



    MediaInfo
    Общее
    Полное имя : D:1АААПринц города.avi
    Формат : AVI
    Формат/Информация : Audio Video Interleave
    Профиль формата : OpenDML
    Размер файла : 2,17 Гбайт
    Продолжительность : 2 ч. 40 м.
    Общий поток : 1934 Кбит/сек
    Программа кодирования : VirtualDubMod 1.5.10.2 (build 2540/release)
    Библиотека кодирования : VirtualDubMod build 2540/release

    Видео
    Идентификатор : 0
    Формат : MPEG-4 Visual
    Профиль формата : Advanced Simple@L5
    Параметр BVOP формата : 2
    Параметр QPel формата : Нет
    Параметр GMC формата : Без точки перехода
    Параметр матрицы формата : Default (MPEG)
    Режим смешивания : Сжатый битовый поток
    Идентификатор кодека : XVID
    Идентификатор кодека/Подсказка : XviD
    Продолжительность : 2 ч. 40 м.
    Битрейт : 1532 Кбит/сек
    Ширина : 704 пикселя
    Высота : 384 пикселя
    Соотношение сторон : 1,85:1
    Частота кадров : 23,976 кадра/сек
    Цветовое пространство : YUV
    Субдискретизация насыщенности : 4:2:0
    Битовая глубина : 8 бит
    Тип развёртки : Прогрессивная
    Метод сжатия : С потерями
    Бит/(Пиксели*Кадры) : 0.236
    Размер потока : 1,72 Гбайт (79%)
    Библиотека кодирования : XviD 1.2.1 (UTC 2008-12-04)

    Аудио #1
    Идентификатор : 1
    Формат : AC-3
    Формат/Информация : Audio Coding 3
    Расширение режима : CM (complete main)
    Параметр Endianness формата : Big
    Идентификатор кодека : 2000
    Продолжительность : 2 ч. 40 м.
    Вид битрейта : Постоянный
    Битрейт : 192 Кбит/сек
    Каналы : 2 канала
    Расположение каналов : Front: L R
    Частота : 48,0 КГц
    Битовая глубина : 16 бит
    Метод сжатия : С потерями
    Размер потока : 220 Мбайт (10%)
    Выравнивание : Разделение по промежуткам
    Продолжительность промежутка : 42 мс. (1,00 видеокадр)
    Время предзагрузки промежутка : 500 мс.

    Аудио #2
    Идентификатор : 2
    Формат : AC-3
    Формат/Информация : Audio Coding 3
    Расширение режима : CM (complete main)
    Параметр Endianness формата : Big
    Идентификатор кодека : 2000
    Продолжительность : 2 ч. 40 м.
    Вид битрейта : Постоянный
    Битрейт : 192 Кбит/сек
    Каналы : 2 канала
    Расположение каналов : Front: L R
    Частота : 48,0 КГц
    Битовая глубина : 16 бит
    Метод сжатия : С потерями
    Размер потока : 220 Мбайт (10%)
    Выравнивание : Разделение по промежуткам
    Продолжительность промежутка : 42 мс. (1,00 видеокадр)
    Время предзагрузки промежутка : 500 мс.







    Скриншоты




    Релиз группа:

    Автор рипа:
    Залил: YArl
    Размер: 2.17 GB (2327805952 Bytes)
    загрузка...
    Рейтинг →
     (голосов: 1, оценка 4/5, голосовать можно 1 раз )

    Другие торренты по теме:

  • Принц города / Prince of the City (1981) WEB-DLRip-AVC | A


    • Комментарии (0):

      Информация

      Информация

        Посетители, находящиеся в группе Гости, не могут оставлять комментарии в данной новости.

        ↓ Меню



        ↓ Опрос

        А Вы добавили сайт в закладки?
        Да
        Не


        Top 10 за месяц (Фильмы)