.
Авторизация | Регистрация
Хочешь лучшие торренты? Добавь свой email!
Добавить
» » Побег / Breakout (1975) DVDRip от Youtracker скачать торрент бесплатно




    Побег / Breakout (1975) DVDRip от Youtracker скачать торрент бесплатно

    Опубликовал: Админ | Дата: 27-02-2015, 11:09 | Просмотров: 403


    Страна: США
    Производство: Columbia Pictures Corporation
    Жанр: боевик, драма, приключения
    Год выпуска: 1975
    Продолжительность: 01:32:48

    Перевод: Профессиональный (дублированный) Советский дубляж
    Оригинальная аудиодорожка: нет
    Cубтитры: нет

    Режиссер: Том Грайс / Tom Gries

    В ролях:
    Чарльз Бронсон /Charles Bronson/, Роберт Дювалл /Robert Duvall/, Джилл Айлэнд /Jill Ireland/, Рэнди Куэйд /Randy Quaid/, Эмилио Фернандес /Emilio Fernandez/, Алехандро Рей /Alejandro Rey/...

    Роли дублировали:
    Георгий Жжёнов, Анатолий Ромашин...

    Описание:
    Отчаянный летчик Ник Колтон берётся вытащить из мексиканской тюрьмы некоего Джея Вагнера за вознаграждение в 250 тысяч долларов. Операция по спасению заключенного представляется практически невыполнимой даже для хорошо подготовленных и вооруженных спецгрупп. Уникальность задания заключается в том, что выполнить его под силу лишь одиночке. Но лучшему из лучших.…



    Исходник: DVD5 R5
    Тип релиза: DVDRip
    Контейнер: AVI

    Видео: 704x304 (2,35:1), 25 fps, XviD ~ 985 kbps avg, 0.184 bit/pixel
    Аудио: 48 kHz, MP3 2.0, 128 kbps Русский

    Раздача от:
    MediaInfo

    Общее
    Полное имя : Pobeg.1975.DVDRip-745_Youtracker_by_AVP Studio.avi
    Формат : AVI
    Формат/Информация : Audio Video Interleave
    Размер файла : 745 Мбайт
    Продолжительность : 1 ч. 32 м.
    Общий поток : 1123 Кбит/сек
    Программа кодирования : VirtualDubModRus 1.5.10.2 (build 2542/release)
    Библиотека кодирования : VirtualDubMod build 2542/release

    Видео
    Идентификатор : 0
    Формат : MPEG-4 Visual
    Профиль формата : Advanced Simple@L5
    Параметр BVOP формата : 1
    Параметр QPel формата : Нет
    Параметр GMC формата : Без точки перехода
    Параметр матрицы формата : Выборочная
    Идентификатор кодека : XVID
    Идентификатор кодека/Подсказка : XviD
    Продолжительность : 1 ч. 32 м.
    Битрейт : 985 Кбит/сек
    Ширина : 704 пикселя
    Высота : 304 пикселя
    Соотношение сторон : 2,35:1
    Частота кадров : 25,000 кадров/сек
    Цветовое пространство : YUV
    Субдискретизация насыщенности : 4:2:0
    Битовая глубина : 8 бит
    Тип развёртки : Прогрессивная
    Метод сжатия : С потерями
    Бит/(Пиксели*Кадры) : 0.184
    Размер потока : 654 Мбайт (88%)
    Библиотека кодирования : XviD 73

    Аудио
    Идентификатор : 1
    Формат : MPEG Audio
    Версия формата : Version 1
    Профиль формата : Layer 3
    Идентификатор кодека : 55
    Идентификатор кодека/Подсказка : MP3
    Продолжительность : 1 ч. 32 м.
    Вид битрейта : Постоянный
    Битрейт : 128 Кбит/сек
    Каналы : 2 канала
    Частота : 48,0 КГц
    Метод сжатия : С потерями
    Размер потока : 85,0 Мбайт (11%)
    Выравнивание : Соединение по промежуткам
    Продолжительность промежутка : 40 мс. (1,00 видеокадр)
    Время предзагрузки промежутка : 504 мс.
    Библиотека кодирования : LAME3.99r
    Залил: AVPStudio
    Размер: 745.10 MB (781291520 Bytes)

    загрузка...
    Рейтинг →
     (голосов: 1, оценка 5/5, голосовать можно 1 раз )

    Другие торренты по теме:

  • Побег / The Getaway (1994) BDRip 720p | P, A
  • Великий побег / Большой побег / The Great Escape (1963) BDRip от HQCLUB
  • Побег / Побег из тюрьмы / Prison Break (2007) НDRip от Scarabey | Ren-tv
  • Побег / Побег из тюрьмы / Prison Break (2006) НDRip от Scarabey | Ren-tv
  • Побег / Побег из тюрьмы / Prison Break (2005 - 2006) НDRip от Scarabey | Ren-tv
  • Побег / Побег из тюрьмы / Prison Break (2008) НDRip от Scarabey | C. P. И.
  • Побег из тюрьмы: Финальный побег / На свободе / Prison Break: The Final Break (2008) НDRip от Scarabey | D
  • Побег из тюрьмы (1-4 сезоны Финальный побег) / Prison Break / 2005-2009 / BDRip (720p) скачать через торрент бесплатно


    • Комментарии (0):

      Информация

      Информация

        Посетители, находящиеся в группе Гости, не могут оставлять комментарии в данной новости.

        ↓ Меню



        ↓ Опрос

        А Вы добавили сайт в закладки?
        Да
        Не


        Top 10 за месяц (Фильмы)