.
Авторизация | Регистрация
Хочешь лучшие торренты? Добавь свой email!
Добавить
» » Я плюю на ваши могилы 2 / I Spit On Your Grave 2 (2013) BDRip-AVC | UNRATED | L скачать торрент бесплатно




    Я плюю на ваши могилы 2 / I Spit On Your Grave 2 (2013) BDRip-AVC | UNRATED | L скачать торрент бесплатно

    Опубликовал: Админ | Дата: 27-02-2015, 11:09 | Просмотров: 337





    Информация о фильме
    Название: Я плюю на ваши могилы 2
    Оригинальное название: I Spit On Your Grave 2
    Год выхода: 2013
    Жанр: ужасы, триллер, криминал
    Режиссер: Стивен Р. Монро
    В ролях: Джемма Даллендер, Джо Эбсолом, Явор Бахаров, Александр Алексеев, Мэри Стокли, Майкл Диксон, Валентин Пелка, Питер Сильверлиф, Георг Златарев

    О фильме: Красавица Кэти только что переехала в Нью-Йорк, чтобы сделать карьеру модели. Но девичьи мечты о роскошной жизни разбиваются: ее насилуют, пытают, а вскоре похищают и увозят в непонятном направлении. Кэти оказывается одна в чужой стране, где ее почти что похоронят заживо. Чудом избежав смерти, девушка решает жестоко отомстить обидчикам…



    Выпущено: США
    Продолжительность: 01:46:11
    Озвучивание: Любительское (многоголосое)
    Примечание: Расширенная версия. Полный перевод.

    Файл
    Формат: MKV
    Качество: BDRip-AVC
    Видео: 1572 kb/s, 960х400
    Аудио: AC3, 384 kb/s (6 ch)

    Семпл





    MI

    Format : Matroska
    Format version : Version 4 / Version 2
    File size : 1.45 GiB
    Duration : 1h 46mn
    Overall bit rate : 1 957 Kbps
    Encoded date : UTC 2013-09-12 07:51:30
    Writing application : mkvmerge v6.1.0 (;Old Devil;) built on Mar 4 2013 09:10:42
    Writing library : libebml v1.3.0 libmatroska v1.4.0

    Video
    ID : 1
    Format : AVC
    Format/Info : Advanced Video Codec
    Format profile : High@L4.1
    Format settings, CABAC : Yes
    Format settings, ReFrames : 9 frames
    Codec ID : V_MPEG4/ISO/AVC
    Duration : 1h 46mn
    Bit rate : 1 572 Kbps
    Width : 960 pixels
    Height : 400 pixels
    Display aspect ratio : 2.40:1
    Frame rate : 23.976 fps
    Color space : YUV
    Chroma subsampling : 4:2:0
    Bit depth : 8 bits
    Scan type : Progressive
    Bits/(Pixel*Frame) : 0.171
    Stream size : 1.14 GiB (78%)
    Writing library : x264 core 130 r2273 b3065e6
    Encoding settings : cabac=1 / ref=9 / deblock=1:-3:-3 / analyse=0x3:0x133 / me=umh / subme=11 / psy=1 / psy_rd=1.00:0.20 / mixed_ref=1 / me_range=32 / chroma_me=1 / trellis=2 / 8x8dct=1 / cqm=0 / deadzone=21,11 / fast_pskip=0 / chroma_qp_offset=-3 / threads=12 / lookahead_threads=2 / sliced_threads=0 / nr=0 / decimate=0 / interlaced=0 / bluray_compat=0 / constrained_intra=0 / bframes=8 / b_pyramid=2 / b_adapt=2 / b_bias=0 / direct=3 / weightb=1 / open_gop=0 / weightp=2 / keyint=250 / keyint_min=23 / scenecut=40 / intra_refresh=0 / rc_lookahead=60 / rc=2pass / mbtree=1 / bitrate=1572 / ratetol=1.0 / qcomp=0.60 / qpmin=0 / qpmax=69 / qpstep=4 / cplxblur=20.0 / qblur=0.5 / ip_ratio=1.40 / aq=1:1.00
    Language : English
    Default : Yes
    Forced : No

    Audio
    ID : 2
    Format : AC-3
    Format/Info : Audio Coding 3
    Mode extension : CM (complete main)
    Format settings, Endianness : Big
    Codec ID : A_AC3
    Duration : 1h 46mn
    Bit rate mode : Constant
    Bit rate : 384 Kbps
    Channel(s) : 6 channels
    Channel positions : Front: L C R, Side: L R, LFE
    Sampling rate : 48.0 KHz
    Bit depth : 16 bits
    Compression mode : Lossy
    Stream size : 292 MiB (20%)
    Language : Russian
    Default : Yes
    Forced : No

    Menu
    00:00:00.000 : en:00:00:00.000
    00:07:11.056 : en:00:07:11.056
    00:15:08.491 : en:00:15:08.491
    00:24:16.455 : en:00:24:16.455
    00:36:33.108 : en:00:36:33.108
    00:46:44.844 : en:00:46:44.844
    00:59:19.306 : en:00:59:19.306
    01:11:52.683 : en:01:11:52.683
    01:17:31.981 : en:01:17:31.981
    01:23:12.112 : en:01:23:12.112
    01:29:12.430 : en:01:29:12.430
    01:42:08.205 : en:01:42:08.205
    Скриншоты

    Размер: 1.45 GB (1558204201 Bytes)
    загрузка...
    Рейтинг →
     (голосов: 1, оценка 4/5, голосовать можно 1 раз )

    Другие торренты по теме:

  • День женщины / Я плюю на твою могилу / I Spit On Your Grave / Day of the Woman (1978) BDRip 1080p от NovaLan
  • Я плюю на ваши могилы / I Spit on Your Grave (2010) HDRip от Scarabey | Расширенная версия
  • Я плюю на ваши могилы 2 / I Spit on Your Grave 2 (2013) HDRip| UNRATED | L1
  • Я плюю на ваши могилы 2 / I Spit On Your Grave 2 (2013) HDRip | UNRATED | L1
  • Я плюю на ваши могилы 2 / I Spit On Your Grave 2 (2013) BDRip-AVC 1080p | UNRATED | L1 | Звук с TS
  • Я плюю на ваши могилы 2 / I Spit On Your Grave 2 (2013) BDRip-AVC 720p | UNRATED | L1 | Звук с TS
  • Я плюю на ваши могилы 2 / I Spit On Your Grave 2 (2013) BDRip-AVC | UNRATED | L1 | Звук с TS
  • Я плюю на ваши могилы 2 / I Spit On Your Grave 2 (2013) BDRip-AVC от HELLYWOOD | UNRATED | L1


    • Комментарии (0):

      Информация

      Информация

        Посетители, находящиеся в группе Гости, не могут оставлять комментарии в данной новости.

        ↓ Меню



        ↓ Опрос

        А Вы добавили сайт в закладки?
        Да
        Не


        Top 10 за месяц (Фильмы)