.
Авторизация | Регистрация
Хочешь лучшие торренты? Добавь свой email!
Добавить
» » Стартрек: Возмездие / Star Trek Into Darkness (2013) BDRemux 1080p | Лицензия скачать торрент бесплатно




    Стартрек: Возмездие / Star Trek Into Darkness (2013) BDRemux 1080p | Лицензия скачать торрент бесплатно

    Опубликовал: Админ | Дата: 27-02-2015, 11:09 | Просмотров: 311



    Информация о фильме
    Название: Стартрек: Возмездие
    Оригинальное название: Star Trek Into Darkness
    Год выпуска: 2013
    Жанр: Фантастика, боевик, приключения
    Выпущено: США, Bad Robot, Kurtzman/Orci, Paramount Pictures, Skydance Productions
    Режиссер: Джей Джей Абрамс
    В ролях: Крис Пайн, Закари Куинто, Зои Салдана, Карл Урбан, Бенедикт Камбербэтч, Саймон Пегг, Элис Ив, Антон Ельчин, Джон Чо, Питер Уэллер

    О фильме: Вернувшись на Землю, команда корабля Энтерпрайз обнаруживает, что деятельность и принципы их организации подорваны изнутри. Флот скован необъяснимым ужасом и бездействует, пока мир все глубже погружается в бездну.Капитан Кирк берет на себя руководство операцией по поимке злодея, ответственного за этот хаос и способного уничтожить все человечество.В запутанной игре не на жизнь, а на смерть, любовь и дружба будут принесены в жертву ради единственного, что осталось у Кирка — его команды.



    Файл
    Качество: Blu-Ray Remux (1080p)
    Видео: MPEG-4 AVC, 26.2 Мбит/с, 1920x1080, 23.976 кадр/с
    Аудио: Русский (AC3, 6 ch, 640 Кбит/с), английский (TrueHD, 8 ch, 4342 Кбит/с), (AC3, 6 ch, 640 Кбит/с)
    Размер: 29.35 ГБ
    Продолжительность: 02:12:05
    Перевод: Дублированный лицензия
    Субтитры: Русские, английские, украинские

    MI
    Общее
    Уникальный идентификатор : 189670657195053091486066754298416707542 (0x8EB13D6542935795B0D22BD57C13B7D6)
    Полное имя : C:1StarTrek.Into.Darkness.(2013).BDRemux.1080p.mkv
    Формат : Matroska
    Версия формата : Version 2
    Размер файла : 29,3 Гбайт
    Продолжительность : 2 ч. 12 м.
    Режим общего битрейта : Переменный
    Общий поток : 31,8 Мбит/сек
    Название фильма : Star Trek Into Darkness (2013) / Lelya_K for NNM-Club
    Дата кодирования : UTC 2013-09-11 10:05:54
    Программа кодирования : mkvmerge v6.3.0 (;You can;t stop me!;) built on Jun 28 2013 20:09:41
    Библиотека кодирования : libebml v1.3.0 libmatroska v1.4.0

    Видео
    Идентификатор : 1
    Формат : AVC
    Формат/Информация : Advanced Video Codec
    Профиль формата : High@L4.1
    Параметр CABAC формата : Да
    Параметр ReFrames формата : 4 кадра
    Идентификатор кодека : V_MPEG4/ISO/AVC
    Продолжительность : 2 ч. 12 м.
    Вид битрейта : Переменный
    Максимальный битрейт : 31,7 Мбит/сек
    Ширина : 1920 пикселей
    Высота : 1080 пикселей
    Соотношение сторон : 16:9
    Режим частоты кадров : Постоянный
    Частота кадров : 23,976 кадра/сек
    Цветовое пространство : YUV
    Субдискретизация насыщенности : 4:2:0
    Битовая глубина : 8 бит
    Тип развёртки : Прогрессивная
    Заголовок : Стартрек.Возмездие-Star.Trek.Into.Darkness.(2013).BDRemux.1080p
    Язык : English
    Default : Да
    Forced : Нет

    Аудио #1
    Идентификатор : 2
    Формат : AC-3
    Формат/Информация : Audio Coding 3
    Расширение режима : CM (complete main)
    Параметр Endianness формата : Big
    Идентификатор кодека : A_AC3
    Продолжительность : 2 ч. 12 м.
    Вид битрейта : Постоянный
    Битрейт : 640 Кбит/сек
    Каналы : 6 каналов
    Расположение каналов : Front: L C R, Side: L R, LFE
    Частота : 48,0 КГц
    Битовая глубина : 16 бит
    Метод сжатия : С потерями
    Размер потока : 605 Мбайт (2%)
    Язык : Russian
    Default : Да
    Forced : Нет

    Аудио #2
    Идентификатор : 3
    Формат : TrueHD
    Идентификатор кодека : A_TRUEHD
    Продолжительность : 2 ч. 12 м.
    Вид битрейта : Переменный
    Максимальный битрейт : 6510 Кбит/сек
    Каналы : 8 каналов
    Расположение каналов : Front: L C R, Side: L R, Back: L R, LFE
    Частота : 48,0 КГц
    Метод сжатия : Без потерь
    Заголовок : TrueHD 7.1 / 4342 kbps / Original
    Язык : English
    Default : Нет
    Forced : Нет

    Аудио #3
    Идентификатор : 10
    Формат : AC-3
    Формат/Информация : Audio Coding 3
    Расширение режима : CM (complete main)
    Параметр Endianness формата : Big
    Идентификатор кодека : A_AC3
    Продолжительность : 2 ч. 12 м.
    Вид битрейта : Постоянный
    Битрейт : 640 Кбит/сек
    Каналы : 6 каналов
    Расположение каналов : Front: L C R, Side: L R, LFE
    Частота : 48,0 КГц
    Битовая глубина : 16 бит
    Метод сжатия : С потерями
    Размер потока : 605 Мбайт (2%)
    Заголовок : AC3 5.1 / 640 kbps / Deive
    Язык : English
    Default : Нет
    Forced : Нет

    Текст #1
    Идентификатор : 4
    Формат : UTF-8
    Идентификатор кодека : S_TEXT/UTF8
    Идентификатор кодека/Информация : UTF-8 Plain Text
    Язык : Russian
    Default : Да
    Forced : Нет

    Текст #2
    Идентификатор : 5
    Формат : UTF-8
    Идентификатор кодека : S_TEXT/UTF8
    Идентификатор кодека/Информация : UTF-8 Plain Text
    Язык : Russian
    Default : Нет
    Forced : Нет

    Текст #3
    Идентификатор : 6
    Формат : UTF-8
    Идентификатор кодека : S_TEXT/UTF8
    Идентификатор кодека/Информация : UTF-8 Plain Text
    Язык : Ukrainian
    Default : Нет
    Forced : Нет

    Текст #4
    Идентификатор : 7
    Формат : UTF-8
    Идентификатор кодека : S_TEXT/UTF8
    Идентификатор кодека/Информация : UTF-8 Plain Text
    Язык : English
    Default : Нет
    Forced : Нет

    Текст #5
    Идентификатор : 8
    Формат : UTF-8
    Идентификатор кодека : S_TEXT/UTF8
    Идентификатор кодека/Информация : UTF-8 Plain Text
    Язык : English
    Default : Нет
    Forced : Нет

    Текст #6
    Идентификатор : 9
    Формат : UTF-8
    Идентификатор кодека : S_TEXT/UTF8
    Идентификатор кодека/Информация : UTF-8 Plain Text
    Язык : English
    Default : Нет
    Forced : Нет

    Меню
    00:00:00.000 : en:Chapter 1
    00:10:20.369 : en:Chapter 2
    00:19:21.493 : en:Chapter 3
    00:30:03.968 : en:Chapter 4
    00:40:09.115 : en:Chapter 5
    00:46:05.262 : en:Chapter 6
    00:56:38.228 : en:Chapter 7
    01:06:35.783 : en:Chapter 8
    01:12:55.662 : en:Chapter 9
    01:22:45.752 : en:Chapter 10
    01:30:54.740 : en:Chapter 11
    01:38:36.368 : en:Chapter 12
    01:47:09.548 : en:Chapter 13
    01:54:17.141 : en:Chapter 14
    01:59:20.653 : en:Chapter 15
    02:03:18.307 : en:Chapter 16

    Скриншоты



    Размер: 29.35 GB (31509414333 Bytes)
    загрузка...
    Рейтинг →
     (голосов: 1, оценка 3/5, голосовать можно 1 раз )

    Другие торренты по теме:

  • Стартрек: Возмездие / Star Trek Into Darkness (2013) HDRip-720p | D | Трейлер
  • OST - Стартрек: Возмездие / Star Trek: Into Darkness (2013) AAC
  • Стартрек: Возмездие / Star Trek Into Darkness (2013) HDRip | Звук с TS
  • Стартрек: Возмездие / Star Trek Into Darkness (2013) BDRip 720p | Звук с TS
  • Стартрек: Возмездие / Star Trek Into Darkness (2013) BDRip 1080p | 3D-Video | halfOU | Звук с TS
  • Стартрек: Возмездие / Star Trek Into Darkness (2013) Blu-Ray Remux | Звук с TS
  • Стартрек: Возмездие / Star Trek Into Darkness (2013) BDRip | Звук с TS
  • Стартрек: Возмездие / Star Trek Into Darkness (2013) BDRip 720p | L1


    • Комментарии (0):

      Информация

      Информация

        Посетители, находящиеся в группе Гости, не могут оставлять комментарии в данной новости.

        ↓ Меню



        ↓ Опрос

        А Вы добавили сайт в закладки?
        Да
        Не


        Top 10 за месяц (Фильмы)