.
Авторизация | Регистрация
Хочешь лучшие торренты? Добавь свой email!
Добавить
» » Другой мир / Underworld (2003) DVD5 | D скачать торрент бесплатно




    Другой мир / Underworld (2003) DVD5 | D скачать торрент бесплатно

    Опубликовал: Админ | Дата: 27-02-2015, 11:09 | Просмотров: 408



    Информация о фильме
    Название: Другой мир
    Оригинальное название: Underworld
    Год выхода: 2003
    Жанр: фэнтези, боевик, триллер
    Режиссер: Лен Уайзман
    В ролях: Кейт Бекинсейл, Скотт Спидман, Майкл Шин, Шэйн Бролли, Билл Найи, Эрвин Ледер, София Майлс, Робби Ги, Вентворт Миллер, Кевин Гревье

    О фильме:
    Столетиями властители царства мрака, вампиры и оборотни ведут беспощадную войну, невидимую человеческому взору. Бесстрашная Селина, воин-вампир, каждую ночь истребляет оборотней, влекомая неутолимой жаждой мести. Ее клан уверен, что вампирам удалось одержать верх над заклятыми врагами, но Селина подозревает, что у оборотней есть тайный план, сулящий гибель ее роду.

    В центре этого плана — смертный парень Майкл. Его генетический код — ключ к созданию сверхсущества, которое будет бессмертно и неуязвимо. Теперь Селина должна любой ценой первой добраться до него, чтобы определить исход вечного противостояния двух могущественных рас, которых люди до сих пор считали мифом…




    Страна: США, Германия, Великобритания, Венгрия
    Студия: Lakeshore Entertainment
    Продолжительность: 133 мин. / 02:13
    Перевод: Дубляж

    Файл
    Кодек: MPEG2
    Качество: DVD5
    Видео: PAL 16:9 (720x576) VBR 5020 Kbps, 25.000 fps
    Звук: Dolby AC3, 2 ch, 48.0 KHz, 192 Kbps
    Субтитры: отсутствуют

    MediaInfo
    General
    Complete name : D:Drugoy MirVIDEO_TSVTS_01_1.VOB
    Format : MPEG-PS
    File size : 1 024 MiB
    Duration : 25mn 57s
    Overall bit rate mode : Variable
    Overall bit rate : 5 514 Kbps

    Video
    ID : 224 (0xE0)
    Format : MPEG Video
    Format version : Version 2
    Format profile : Main@Main
    Format settings, BVOP : No
    Format settings, Matrix : Default
    Format settings, GOP : Variable
    Duration : 25mn 57s
    Bit rate mode : Variable
    Bit rate : 5 020 Kbps
    Maximum bit rate : 8 000 Kbps
    Width : 720 pixels
    Height : 576 pixels
    Display aspect ratio : 2.40:1
    Frame rate : 25.000 fps
    Standard : PAL
    Color space : YUV
    Chroma subsampling : 4:2:0
    Bit depth : 8 bits
    Scan type : Interlaced
    Scan order : Top Field First
    Compression mode : Lossy
    Bits/(Pixel*Frame) : 0.484
    Time code of first frame : 01:00:00:19
    Time code source : Group of pictures t_head
    Stream size : 932 MiB (91%)
    Color primaries : BT.601 PAL
    Transfer characteristics : BT.470 System B, BT.470 System G
    Matrix coefficients : BT.601

    Audio #1
    ID : 189 (0xBD)-128 (0x80)
    Format : AC-3
    Format/Info : Audio Coding 3
    Mode extension : CM (complete main)
    Format settings, Endianness : Big
    Muxing mode : DVD-Video
    Duration : 25mn 57s
    Bit rate mode : Constant
    Bit rate : 192 Kbps
    Channel count : 2 channels
    Channel positions : Front: L R
    Sampling rate : 48.0 KHz
    Bit depth : 16 bits
    Compression mode : Lossy
    Stream size : 35.7 MiB (3%)

    Audio #2
    ID : 189 (0xBD)-129 (0x81)
    Format : AC-3
    Format/Info : Audio Coding 3
    Mode extension : CM (complete main)
    Format settings, Endianness : Big
    Muxing mode : DVD-Video
    Duration : 25mn 57s
    Bit rate mode : Constant
    Bit rate : 192 Kbps
    Channel count : 2 channels
    Channel positions : Front: L R
    Sampling rate : 48.0 KHz
    Bit depth : 16 bits
    Compression mode : Lossy
    Stream size : 35.7 MiB (3%)

    Menu

    Скриншоты

    Залил: carisha
    Размер: 4.36 GB (4680816640 Bytes)
    загрузка...
    Рейтинг →
     (голосов: 1, оценка 4/5, голосовать можно 1 раз )

    Другие торренты по теме:

  • Другой мир: Квадрология / Underworld: Quadrilogy (2003-2012) HDRip-AVC от potroks | D
  • OST - Другой мир: Эволюция / Underworld: Evolution (2006) MP3
  • Другой мир: Пробуждение / Underworld: Awakening (2012) BDRip-AVC
  • Другой мир: Восстание ликанов / Underworld: Rise of the Lycans (2009) HDRip-AVC
  • Другой мир. Бесконечная война / Underworld. Endless War (2011) Web-DLRip 720p | L2
  • Другой мир 2: Эволюция / Underworld: Evolution (2006) BDRip 1080p от FREEISLAND
  • OST - Другой мир: Восстание Ликанов / Underworld: The Rise Of The Lycans (2009) MP3
  • OST - Дневник будущего: Другой мир / Mirai Nikki - Another: World (2012) MP3


    • Комментарии (0):

      Информация

      Информация

        Посетители, находящиеся в группе Гости, не могут оставлять комментарии в данной новости.

        ↓ Меню



        ↓ Опрос

        А Вы добавили сайт в закладки?
        Да
        Не


        Top 10 за месяц (Фильмы)