.
Авторизация | Регистрация
Хочешь лучшие торренты? Добавь свой email!
Добавить
» » Византия / Byzantium (2012) WEB-DLRip от Youtracer | D | лицензия скачать торрент бесплатно




    Византия / Byzantium (2012) WEB-DLRip от Youtracer | D | лицензия скачать торрент бесплатно

    Опубликовал: Админ | Дата: 27-02-2015, 11:09 | Просмотров: 300

    Нет связи крепче, чем узы крови


    Страна: Великобритания, США, Ирландия
    Студия: Demarest Films, Lip Sync Productions...
    Жанр: ужасы, фэнтези, триллер, драма
    Год выпуска: 2012
    Продолжительность: 01:58:07

    Перевод: Профессиональный (дублированный)
    Субтитры: нет
    Оригинальная аудиодорожка: нет

    Режиссер: Нил Джордан / Neil Jordan

    В ролях: Сирша Ронан, Джемма Артертон, Сэм Райли, Калеб Лэндри Джонс, Дэниэл Мейс, Джонни Ли Миллер, Туре Линдхардт, Ури Гавриел, Мария Дойл Кеннеди, Кэролайн Джонс...

    Описание: История партнёрства вампиров — матери и дочери, которые выдают себя за сестёр.



    Исходники: Byzantium.2012.720p.WEB-DL.DD5.1.H.264-ELiTE.mkv DVD9 R5
    Тип релиза: WEB-DLRip
    Контейнер: AVI

    Видео: 720x304 (2.35:1), 24.000 fps, XViD ~747 kbps avg, 0.142 bit/pixel
    Аудио: Русский 48 kHz, МР3, 2 ch, 128.00 kbps Constant

    MediaInfo

    Общее
    Полное имя : Vizantiya.2012.D.WEB-DLRip.745MB_Youtracker_by_avproh.avi
    Формат : AVI
    Формат/Информация : Audio Video Interleave
    Размер файла : 747 Мбайт
    Продолжительность : 1 ч. 58 м.
    Общий поток : 884 Кбит/сек
    Программа кодирования : VirtualDubModRus 1.5.10.2 (build 2542/release)
    Библиотека кодирования : VirtualDubMod build 2542/release

    Видео
    Идентификатор : 0
    Формат : MPEG-4 Visual
    Профиль формата : Advanced Simple@L5
    Параметр BVOP формата : 1
    Параметр QPel формата : Нет
    Параметр GMC формата : Без точки перехода
    Параметр матрицы формата : Выборочная
    Идентификатор кодека : XVID
    Идентификатор кодека/Подсказка : XviD
    Продолжительность : 1 ч. 58 м.
    Битрейт : 747 Кбит/сек
    Ширина : 720 пикселей
    Высота : 304 пикселя
    Соотношение сторон : 2,35:1
    Частота кадров : 24,000 кадра/сек
    Цветовое пространство : YUV
    Субдискретизация насыщенности : 4:2:0
    Битовая глубина : 8 бит
    Тип развёртки : Прогрессивная
    Метод сжатия : С потерями
    Бит/(Пиксели*Кадры) : 0.142
    Размер потока : 631 Мбайт (84%)
    Библиотека кодирования : XviD 73

    Аудио
    Идентификатор : 1
    Формат : MPEG Audio
    Версия формата : Version 1
    Профиль формата : Layer 3
    Режим : Joint stereo
    Идентификатор кодека : 55
    Идентификатор кодека/Подсказка : MP3
    Продолжительность : 1 ч. 58 м.
    Вид битрейта : Постоянный
    Битрейт : 128 Кбит/сек
    Каналы : 2 канала
    Частота : 48,0 КГц
    Метод сжатия : С потерями
    Размер потока : 108 Мбайт (14%)
    Выравнивание : Соединение по промежуткам
    Продолжительность промежутка : 42 мс. (1,00 видеокадр)
    Время предзагрузки промежутка : 504 мс.

    Скриншоты



    Залил: avproh
    Размер: 746.80 MB (783075328 Bytes)
    загрузка...
    Рейтинг →
     (голосов: 1, оценка 3/5, голосовать можно 1 раз )

    Другие торренты по теме:

  • Discovery: Византия. Утраченная империя / Discovery: Byzantium. The Lost Empire (2009) DVDRip-AVC от Тorrent-Хzona
  • Византия / Byzantium (2012) WEB-DLRip | Sub
  • Византия / Byzantium (2012) WEB-DL 720p | L1
  • Византия / Byzantium (2012) DVD9 R5 от Youtracer | D | лицензия
  • Византия / Byzantium (2012) WEB-DL 720p от Youtracer | D, P | лицензия
  • Византия / Byzantium (2012) DVD5 от Youtracer | D | сжатый
  • Византия / Byzantium (2012) WEB-DLRip-AVC от Youtracker | D | Лицензия
  • Европа 3. Византия / Europa Universalis 3: In Nomine (2008) PC


    • Комментарии (0):

      Информация

      Информация

        Посетители, находящиеся в группе Гости, не могут оставлять комментарии в данной новости.

        ↓ Меню



        ↓ Опрос

        А Вы добавили сайт в закладки?
        Да
        Не


        Top 10 за месяц (Фильмы)