.
Авторизация | Регистрация
Хочешь лучшие торренты? Добавь свой email!
Добавить
» » Восток / The East (2013) BDRip 720p | L2 скачать торрент бесплатно




    Восток / The East (2013) BDRip 720p | L2 скачать торрент бесплатно

    Опубликовал: Админ | Дата: 27-02-2015, 11:09 | Просмотров: 372



    Информация о фильме
    Название: Восток
    Оригинальное название: The East
    Год выхода: 2013
    Жанр: триллер
    Режиссер: Зал Батманглидж
    В ролях: Брит Марлинг, Александр Скарсгард, Эллен Пейдж, Тоби Кеббелл, Шайло Фернандес, Элдис Ходж, Даниэль МакДональд, Хиллари Бак, Патришия Кларксон, Джейсон Риттер

    О фильме: Восток — название группировки экологических террористов, пытающейся отомстить аморальным корпорациям. Представительница спецслужб должна проникнуть в группировку.



    Выпущено: США, Великобритания
    Продолжительность: 01:56:07
    Озвучивание: Любительское (двухголосое) Александр Нелюбин, Ирина Грачева

    Файл
    Формат: MKV
    Качество: BDRip 720p
    Видео: 4543 kb/s, 1280x544
    Аудио: Russian: AC3, 448 kb/s (6 ch) / English: AC3, 384 kb/s (6 ch)





    MI

    Format : Matroska
    Format version : Version 4 / Version 2
    File size : 4.36 GiB
    Duration : 1h 56mn
    Overall bit rate : 5 377 Kbps
    Encoded date : UTC 2013-09-10 18:45:10
    Writing application : mkvmerge v6.1.0 (;Old Devil;) built on Mar 4 2013 09:10:42
    Writing library : libebml v1.3.0 libmatroska v1.4.0

    Video
    ID : 1
    Format : AVC
    Format/Info : Advanced Video Codec
    Format profile : High@L4.1
    Format settings, CABAC : Yes
    Format settings, ReFrames : 5 frames
    Codec ID : V_MPEG4/ISO/AVC
    Duration : 1h 56mn
    Bit rate : 4 543 Kbps
    Width : 1 280 pixels
    Height : 544 pixels
    Display aspect ratio : 2.35:1
    Frame rate : 23.976 fps
    Color space : YUV
    Chroma subsampling : 4:2:0
    Bit depth : 8 bits
    Scan type : Progressive
    Bits/(Pixel*Frame) : 0.272
    Stream size : 3.60 GiB (83%)
    Writing library : x264 core 133 r2334 a3ac64b
    Encoding settings : cabac=1 / ref=5 / deblock=1:-1:-1 / analyse=0x3:0x113 / me=umh / subme=9 / psy=1 / psy_rd=1.00:0.00 / mixed_ref=1 / me_range=20 / chroma_me=1 / trellis=1 / 8x8dct=1 / cqm=0 / deadzone=21,11 / fast_pskip=0 / chroma_qp_offset=-2 / threads=6 / lookahead_threads=1 / sliced_threads=0 / nr=0 / decimate=1 / interlaced=0 / bluray_compat=0 / constrained_intra=0 / bframes=3 / b_pyramid=2 / b_adapt=2 / b_bias=0 / direct=3 / weightb=1 / open_gop=0 / weightp=2 / keyint=240 / keyint_min=23 / scenecut=40 / intra_refresh=0 / rc_lookahead=40 / rc=2pass / mbtree=1 / bitrate=4543 / ratetol=1.0 / qcomp=0.60 / qpmin=0 / qpmax=69 / qpstep=4 / cplxblur=20.0 / qblur=0.5 / vbv_maxrate=50000 / vbv_bufsize=62500 / nal_hrd=none / ip_ratio=1.40 / aq=1:1.00
    Language : English
    Default : Yes
    Forced : No

    Audio #1
    ID : 2
    Format : AC-3
    Format/Info : Audio Coding 3
    Mode extension : CM (complete main)
    Format settings, Endianness : Big
    Codec ID : A_AC3
    Duration : 1h 56mn
    Bit rate mode : Constant
    Bit rate : 448 Kbps
    Channel(s) : 6 channels
    Channel positions : Front: L C R, Side: L R, LFE
    Sampling rate : 48.0 KHz
    Bit depth : 16 bits
    Compression mode : Lossy
    Stream size : 372 MiB (8%)
    Language : Russian
    Default : Yes
    Forced : No

    Audio #2
    ID : 3
    Format : AC-3
    Format/Info : Audio Coding 3
    Mode extension : CM (complete main)
    Format settings, Endianness : Big
    Codec ID : A_AC3
    Duration : 1h 56mn
    Bit rate mode : Constant
    Bit rate : 384 Kbps
    Channel(s) : 6 channels
    Channel positions : Front: L C R, Side: L R, LFE
    Sampling rate : 48.0 KHz
    Bit depth : 16 bits
    Compression mode : Lossy
    Stream size : 319 MiB (7%)
    Language : English
    Default : No
    Forced : No
    Скриншоты

    Размер: 4.36 GB (4683091248 Bytes)
    загрузка...
    Рейтинг →
     (голосов: 1, оценка 5/5, голосовать можно 1 раз )

    Другие торренты по теме:

  • Восток есть восток / East Is East (1999) BDRip 720p скачать через торрент бесплатно
  • Восток есть восток / East Is East (1999) BDRip 720p
  • Восток есть восток / East Is East (1999) HDRip от Portablius | P
  • Поезд идёт на восток (1947) DVDRip
  • Восток / The East (2013) HDRip | L2
  • Восток / The East (2013) BDRip-AVC от HELLYWOOD | L2
  • Восток / The East (2013) BDRip 1080p | L2
  • Восток / The East (2013) BDRip-AVC от HELLYWOOD | P | Лицензия скачать через торрент бесплатно


    • Комментарии (0):

      Информация

      Информация

        Посетители, находящиеся в группе Гости, не могут оставлять комментарии в данной новости.

        ↓ Меню



        ↓ Опрос

        А Вы добавили сайт в закладки?
        Да
        Не


        Top 10 за месяц (Фильмы)