.
Авторизация | Регистрация
Хочешь лучшие торренты? Добавь свой email!
Добавить
» » Уличные танцы 3: Все звезды / All Stars (2013) BDRip от Youtracker | D скачать торрент бесплатно




    Уличные танцы 3: Все звезды / All Stars (2013) BDRip от Youtracker | D скачать торрент бесплатно

    Опубликовал: Админ | Дата: 27-02-2015, 11:09 | Просмотров: 344

    Шесть френдов. Одна команда. Грандиозное шоу. Победа без вариантов!



    Страна: Великобритания / Vertigo Films
    Жанр: комедия, семейный
    Год выпуска: 2013
    Продолжительность: 01:42:49

    Перевод: Профессиональный (дублированный)
    Оригинальная аудиодорожка: нет
    Cубтитры: нет

    Режиссер: Бен Грегор / Ben Gregor

    В ролях: Тео Стивенсон, Акай Осей-Мэнсфилд. Флер Хаудейк, Доминик Герман-Дэй, Амелия Кларксон, Гамал Тосифа, Эшли Дженсен, Хью Дэннис, Кевин Бишоп, Эшли Уолтерс...

    Роли дублировали: Лиза Мартиросова, Александр Дасевич

    Описание: Герой фильма, энергичный и бойкий Этан, объединяется со скромным профессиональным стритдансером Джейденом для участия в очередном чемпионате по уличным танцам. Только своей победой ребята смогут спасти свой молодежный клуб от закрытия. И они сделают это, во что бы то ни стало…



    Качество: BDRip / Blu-ray 3D 1080p
    Формат: AVI

    Видео: 656x352 (1.85:1), 23.976 fps, XVID ~912 kbps avg, 0.165 bit/pixel
    Аудио: Русский 48 kHz, MP3, 2 ch, 128.00 kbps Constant

    Раздача от:
    MediaInfo

    Общее
    Полное имя : Ulichnye.tancy.3.2013.D.BDRip.745MB_Youtracker_by_avproh.avi
    Формат : AVI
    Формат/Информация : Audio Video Interleave
    Размер файла : 772 Мбайт
    Продолжительность : 1 ч. 42 м.
    Общий поток : 1049 Кбит/сек
    Программа кодирования : VirtualDubModRus 1.5.10.2 (build 2542/release)
    Библиотека кодирования : VirtualDubMod build 2542/release

    Видео
    Идентификатор : 0
    Формат : MPEG-4 Visual
    Профиль формата : Advanced Simple@L5
    Параметр BVOP формата : 1
    Параметр QPel формата : Нет
    Параметр GMC формата : Без точки перехода
    Параметр матрицы формата : Выборочная
    Идентификатор кодека : XVID
    Идентификатор кодека/Подсказка : XviD
    Продолжительность : 1 ч. 42 м.
    Битрейт : 912 Кбит/сек
    Ширина : 656 пикселей
    Высота : 352 пикселя
    Соотношение сторон : 1,85:1
    Частота кадров : 23,976 кадра/сек
    Цветовое пространство : YUV
    Субдискретизация насыщенности : 4:2:0
    Битовая глубина : 8 бит
    Тип развёртки : Прогрессивная
    Метод сжатия : С потерями
    Бит/(Пиксели*Кадры) : 0.165
    Размер потока : 671 Мбайт (87%)
    Библиотека кодирования : XviD 73

    Аудио
    Идентификатор : 1
    Формат : MPEG Audio
    Версия формата : Version 1
    Профиль формата : Layer 3
    Режим : Joint stereo
    Расширение режима : MS Stereo
    Идентификатор кодека : 55
    Идентификатор кодека/Подсказка : MP3
    Продолжительность : 1 ч. 42 м.
    Вид битрейта : Постоянный
    Битрейт : 128 Кбит/сек
    Каналы : 2 канала
    Частота : 48,0 КГц
    Метод сжатия : С потерями
    Размер потока : 94,1 Мбайт (12%)
    Выравнивание : Соединение по промежуткам
    Продолжительность промежутка : 42 мс. (1,00 видеокадр)
    Время предзагрузки промежутка : 504 мс.

    Скриншоты:



    Залил: avproh
    Размер: 771.78 MB (809267200 Bytes)
    загрузка...
    Рейтинг →
     (голосов: 1, оценка 5/5, голосовать можно 1 раз )

    Другие торренты по теме:

  • Уличные танцы 3: Все звезды / All Stars (2013) BDRemux 1080p от Youtracker | D
  • Уличные танцы 3: Все звезды / All Stars (2013) Blu-ray 1080p от Youtracker и HDCLUB | D | 3D-video
  • Уличные танцы 3: Все звезды / All Stars (2013) BDRip-AVC от -=HD-NET=-
  • Уличные танцы 3: Все звезды / All Stars (2013) DVD5 R5 от Youtracker | D | лицензия
  • Уличные танцы 3: Все звезды / All Stars (2013) BDRip 1080p | 3D-Video | halfOU скачать через торрент бесплатно
  • Уличные танцы 3: Все звезды / All Stars (2013) BDRip от HQCLUB | Лицензия


    • Комментарии (0):

      Информация

      Информация

        Посетители, находящиеся в группе Гости, не могут оставлять комментарии в данной новости.

        ↓ Меню



        ↓ Опрос

        А Вы добавили сайт в закладки?
        Да
        Не


        Top 10 за месяц (Фильмы)