.
Авторизация | Регистрация
Хочешь лучшие торренты? Добавь свой email!
Добавить
» » Хеллбой II: Золотая армия / Hellboy II: The Golden Army (2008) DVD9 | D скачать торрент бесплатно




    Хеллбой II: Золотая армия / Hellboy II: The Golden Army (2008) DVD9 | D скачать торрент бесплатно

    Опубликовал: Админ | Дата: 27-02-2015, 11:09 | Просмотров: 339



    Информация о фильме
    Название: Хеллбой II: Золотая армия
    Оригинальное название: Hellboy II: The Golden Army
    Год выхода: 2008
    Жанр: фантастика, фэнтези, боевик, приключения
    Режиссер: Гильермо дель Торо
    В ролях: Рон Перлман, Сэльма Блэр, Даг Джонс, Джон Александр, Джеймс Додд, Сет МакФарлейн, Люк Госс, Анна Уолтон, Джеффри Тэмбор, Джон Хёрт

    О фильме:
    После того как древнее перемирие между человечеством и тайным миром было нарушено, на Земле вот-вот разверзнется ад. Безжалостный лидер, вхожий в оба мира, бросает вызов своей крови и пробуждает на свет неодолимую армию чудовищ.

    Настало время самому Хэллбою сразиться с беспощадным диктатором и его воинами. Вместе со своей пополняющей ряды командой Бюро Паранормальных Исследований и Развития он будет бороздить границы двух миров — нашего и скрытого, где самые невероятные существа обретают плоть. Хэллбою, порожденному обоими мирами, но не принадлежащему ни одному из них, предстоит выбирать между жизнью, которую он знает, и неизвестностью новой судьбы.




    Страна: США, Германия
    Студия: Dark Horse Entertainment, Relativity Media, Universal Pictures
    Продолжительность: 120 мин. / 02:00
    Перевод: профессиональный (полное дублирование)
    Оригинальная дорожка: отсутствует
    Доп. материалы: Смотрите на DVD

    Файл
    Кодек: MPEG2
    Качество: DVD9
    Видео: PAL 16:9 (720x576) VBR 6705 Kbps, 25.000 Kbps
    Звук 1: Dolby AC3, 6 ch, 48.0 KHz, 384 Kbps
    Звук 2: DTS 6 ch, 48.0 KHz, 755 Kbps
    Субтитры: отсутствуют

    MediaInfo
    General
    Complete name : D:HELLBOY 2VIDEO_TSVTS_02_1.VOB
    Format : MPEG-PS
    File size : 1 024 MiB
    Duration : 17mn 53s
    Overall bit rate mode : Variable
    Overall bit rate : 8 003 Kbps

    Video
    ID : 224 (0xE0)
    Format : MPEG Video
    Format version : Version 2
    Format profile : Main@Main
    Format settings, BVOP : No
    Format settings, Matrix : Custom
    Format settings, GOP : Variable
    Duration : 17mn 53s
    Bit rate mode : Variable
    Bit rate : 6 705 Kbps
    Maximum bit rate : 9 800 Kbps
    Width : 720 pixels
    Height : 576 pixels
    Display aspect ratio : 16:9
    Frame rate : 25.000 fps
    Standard : PAL
    Color space : YUV
    Chroma subsampling : 4:2:0
    Bit depth : 8 bits
    Scan type : Interlaced
    Scan order : Top Field First
    Compression mode : Lossy
    Bits/(Pixel*Frame) : 0.647
    Time code of first frame : 00:00:00:00
    Time code source : Group of pictures t_head
    Stream size : 858 MiB (84%)

    Audio #1
    ID : 189 (0xBD)-128 (0x80)
    Format : AC-3
    Format/Info : Audio Coding 3
    Mode extension : CM (complete main)
    Format settings, Endianness : Big
    Muxing mode : DVD-Video
    Duration : 17mn 52s
    Bit rate mode : Constant
    Bit rate : 384 Kbps
    Channel count : 6 channels
    Channel positions : Front: L C R, Side: L R, LFE
    Sampling rate : 48.0 KHz
    Bit depth : 16 bits
    Compression mode : Lossy
    Stream size : 49.1 MiB (5%)

    Audio #2
    ID : 189 (0xBD)-137 (0x89)
    Format : DTS
    Format/Info : Digital Theater Systems
    Mode : 16
    Format settings, Endianness : Big
    Muxing mode : DVD-Video
    Duration : 17mn 52s
    Bit rate mode : Constant
    Bit rate : 755 Kbps
    Channel count : 6 channels
    Channel positions : Front: L C R, Side: L R, LFE
    Sampling rate : 48.0 KHz
    Bit depth : 24 bits
    Compression mode : Lossy
    Stream size : 96.5 MiB (9%)

    Menu

    Скриншоты

    Залил: carisha
    Размер: 6.92 GB (7425021952 Bytes)
    загрузка...
    Рейтинг →
     (голосов: 1, оценка 4/5, голосовать можно 1 раз )

    Другие торренты по теме:

  • Хеллбой II: Золотая армия / Hellboy II: The Golden Army (2008) BDRip-AVC от olegek70 | D, P, A
  • Хеллбой II: Золотая армия / Hellboy II: The Gоlden Аrmy (2008) HDRip от New-Team
  • Хеллбой II: Золотая армия / Hellboy II: The Golden Army (2008) BDRip от HQCLUB
  • OST - Хеллбой 2: Золотая армия / Hellboy II: The Golden Army (2008) MP3


    • Комментарии (0):

      Информация

      Информация

        Посетители, находящиеся в группе Гости, не могут оставлять комментарии в данной новости.

        ↓ Меню



        ↓ Опрос

        А Вы добавили сайт в закладки?
        Да
        Не


        Top 10 за месяц (Фильмы)