.
Авторизация | Регистрация
Хочешь лучшие торренты? Добавь свой email!
Добавить
» » Отсутствие / Absentia (2011) Blu-ray Remux 1080p от MediaClub | P, L1 скачать торрент бесплатно




    Отсутствие / Absentia (2011) Blu-ray Remux 1080p от MediaClub | P, L1 скачать торрент бесплатно

    Опубликовал: Админ | Дата: 27-02-2015, 11:09 | Просмотров: 282



    Информация о фильме
    Название: Отсутствие
    Оригинальное название: Absentia
    Год выхода: 2011
    Жанр: Ужасы, драма, детектив
    Режиссер: Майк Флэнеган
    В ролях: Кэти Паркер, Кортни Белл, Дэйв Ливайн, Морган Питер Браун, Джастин Гордон, Джеймс Флэнеган, Скотт Грэхэм, Даг Джонс, Йен Грегори, Конни Вентресс, Элизабет Эдвин, Марк Дамонский, Брэндон Вэлли Джонс, Джозеф Мендоза, Дэймон Пфафф, Брайен Нормойл, Кэмрон Робертсон, Зак Джеффрис, Натали Рэрс

    О фильме:
    Пропажу мужа Триша переживала долго и тяжело. Прошли семь лет с момента его исчезновения. Однажды, к ней в гости приезжает младшая сестра Кэлли, которая и стала тем самым катализатором, приведшим к странным и пугающим событиям. Во время спортивной тренировки Кэлли пробегает через туннель, в котором встречает призрака. Вскоре становится известно, что с этим тоннелем связано ни одно исчезновение, а много больше…
    Ограничение
    Рейтинг R - Детям до 17 лет обязательно присутствие родителей

    Рейтинг R получают фильмы, в содержании которых обязательно содержится материал, предназначенный только для взрослой аудитории. Родителям рекомендуется хорошо подумать, прежде чем посмотреть такой фильм вместе со своими детьми.

    Фильм, получивший рейтинг R, скорее всего содержит сексуальные сцены, эпизоды с употреблением наркотиков, нецензурную брань, фрагменты с насилием и т.д.
    MediaInfo
    Полное имя : G:Готово!!!Otsutstvie.2011.x264.Blu-ray.Remux.1080p-MediaClub.mkv
    Формат : Matroska
    Версия формата : Version 2
    Размер файла : 15,1 Гбайт
    Продолжительность : 1 ч. 31 м.
    Режим общего битрейта : Переменный
    Общий поток : 23,7 Мбит/сек
    Название фильма : Otsutstvie.2011.x264.Blu-ray.Remux.1080p-MediaClub
    Дата кодирования : UTC 2013-09-05 15:37:37
    Программа кодирования : mkvmerge v5.8.0 (;No Sleep / Pillow;) built on Sep 2 2012 15:37:04
    Библиотека кодирования : libebml v1.2.3 libmatroska v1.3.0

    Видео
    Идентификатор : 1
    Формат : AVC
    Формат/Информация : Advanced Video Codec
    Профиль формата : High@L4.1
    Параметр CABAC формата : Да
    Параметр ReFrames формата : 4 кадра
    Режим смешивания : Container profile=Unknown@0.0
    Идентификатор кодека : V_MPEG4/ISO/AVC
    Продолжительность : 1 ч. 31 м.
    Вид битрейта : Переменный
    Максимальный битрейт : 34,0 Мбит/сек
    Ширина : 1920 пикселей
    Высота : 1080 пикселей
    Соотношение сторон : 16:9
    Режим частоты кадров : Постоянный
    Частота кадров : 23,976 кадра/сек
    Стандарт вещания : NTSC
    Цветовое пространство : YUV
    Субдискретизация насыщенности : 4:2:0
    Битовая глубина : 8 бит
    Тип развёртки : Прогрессивная
    Язык : English
    Default : Нет
    Forced : Нет
    Основные цвета : BT.709
    Характеристики трансфера : BT.709
    Коэффициенты матрицы : BT.709

    Аудио #1
    Идентификатор : 2
    Формат : AC-3
    Формат/Информация : Audio Coding 3
    Расширение режима : CM (complete main)
    Параметр Endianness формата : Big
    Идентификатор кодека : A_AC3
    Продолжительность : 1 ч. 31 м.
    Вид битрейта : Постоянный
    Битрейт : 192 Кбит/сек
    Каналы : 2 канала
    Расположение каналов : Front: L R
    Частота : 48,0 КГц
    Битовая глубина : 16 бит
    Метод сжатия : С потерями
    Размер потока : 125 Мбайт (1%)
    Заголовок : НТВ
    Язык : Russian
    Default : Да
    Forced : Нет

    Аудио #2
    Идентификатор : 3
    Формат : AC-3
    Формат/Информация : Audio Coding 3
    Расширение режима : CM (complete main)
    Параметр Endianness формата : Big
    Идентификатор кодека : A_AC3
    Продолжительность : 1 ч. 31 м.
    Вид битрейта : Постоянный
    Битрейт : 192 Кбит/сек
    Каналы : 2 канала
    Расположение каналов : Front: L R
    Частота : 48,0 КГц
    Битовая глубина : 16 бит
    Метод сжатия : С потерями
    Размер потока : 125 Мбайт (1%)
    Заголовок : den904
    Язык : Russian
    Default : Нет
    Forced : Нет

    Аудио #3
    Идентификатор : 4
    Формат : DTS
    Формат/Информация : Digital Theater Systems
    Профиль формата : MA / Core
    Режим : 16
    Параметр Endianness формата : Big
    Идентификатор кодека : A_DTS
    Продолжительность : 1 ч. 31 м.
    Вид битрейта : Переменный
    Битрейт : Неизвестно / 1509 Кбит/сек
    Каналы : 6 каналов
    Расположение каналов : Front: L C R, Side: L R, LFE
    Частота : 48,0 КГц
    Битовая глубина : 16 бит
    Метод сжатия : Без потерь / Lossy
    Язык : English
    Default : Нет
    Forced : Нет

    Аудио #4
    Идентификатор : 5
    Формат : DTS
    Формат/Информация : Digital Theater Systems
    Режим : 16
    Параметр Endianness формата : Big
    Идентификатор кодека : A_DTS
    Продолжительность : 1 ч. 31 м.
    Вид битрейта : Постоянный
    Битрейт : 1509 Кбит/сек
    Каналы : 6 каналов
    Расположение каналов : Front: L C R, Side: L R, LFE
    Частота : 48,0 КГц
    Битовая глубина : 16 бит
    Метод сжатия : С потерями
    Размер потока : 984 Мбайт (6%)
    Язык : German
    Default : Нет
    Forced : Нет

    Меню
    00:00:00.000 : :Chapter 01
    00:11:43.911 : :Chapter 02
    00:27:38.657 : :Chapter 03
    00:40:41.063 : :Chapter 04
    00:57:03.670 : :Chapter 05
    01:21:36.182 : :Chapter 06
    -----------------------------------------------------------------------------------------------------------
    Pos. in file: 16,209,134,156 bytes (86 MB/s) Timecode: 01:31:05.056

    raw stream sizes:
    track 1 : 13,671,169,145 avg. bitrate: 19,990 kbps frames: 131,174
    track 2 : 131,305,728 avg. bitrate: 192 kbps frames: 170,971
    track 3 : 131,305,728 avg. bitrate: 192 kbps frames: 170,971
    track 4 : 1,246,045,268 avg. bitrate: 1,822 kbps frames: 512,913
    track 5 : 1,031,981,192 avg. bitrate: 1,509 kbps frames: 512,913
    -----------------------------------------------------------------------------
    sum of tracks : 16,211,807,061
    segment size : 16,215,269,130
    -----------------------------------------------------------------------------
    overhead : 3,462,069



    Официальный сайт

    Страна: США
    Студия: FallBack Plan Productions, Blue Dot Productions
    Продолжительность: 01:31:11
    Перевод: Профессиональный многоголосый (НТВ ), Любительский одноголосый (den904)

    Файл
    Кодек: x264
    Качество: Blu-ray Remux 1080p
    Видео: MPEG-4 AVC, 19990 Кбит/с, 1920x1080, 23.976 кадр/с
    Звук:
    Аудио #1: Русский (AC3, 2 ch, 192 Кбит/с) / Профессиональный многоголосый (НТВ )
    Аудио #2: Русский (AC3, 2 ch, 192 Кбит/с) / Любительский одноголосый (den904)
    Аудио #3: Английский (DTS-HD MA, 6 ch, 1822 Кбит/с)
    Аудио #4: Немецкийкий (DTS, 6 ch, 1509 Кбит/с)

    Семпл

    Скриншоты


    Релиз от: Работа с аудио - Викс
    Залил: Викс
    Размер: 15.10 GB (16215269182 Bytes)
    загрузка...
    Рейтинг →
     (голосов: 1, оценка 4/5, голосовать можно 1 раз )

    Другие торренты по теме:

  • Отсутствие / Absentia (2011) BDRip-AVC от MediaClub | P, L1
  • Отсутствие / Absentia (2011) BDRip 720p от MediaClub | P, L1
  • Зло / Отсутствие добра / Absence of the good (1999) DVDRip | P2
  • Зло / Отсутствие добра / Absence of the good (1999) DVDRip-AVC | P2
  • Отсутствие / Absentia (2011) BDRip от HELLYWOOD скачать через торрент бесплатно
  • В твоё отсутствие / En tu ausencia (2008) WEBRip 1080p | L1 | Directors Cut


    • Комментарии (0):

      Информация

      Информация

        Посетители, находящиеся в группе Гости, не могут оставлять комментарии в данной новости.

        ↓ Меню



        ↓ Опрос

        А Вы добавили сайт в закладки?
        Да
        Не


        Top 10 за месяц (Фильмы)