.
Авторизация | Регистрация
Хочешь лучшие торренты? Добавь свой email!
Добавить




Блэйз / Blaze (1989) BDRip | D, A скачать торрент бесплатно

Опубликовал: Админ | Дата: 27-02-2015, 11:09 | Просмотров: 362



Название: Блэйз
Оригинальное название: Blaze
Год выпуска: 1989
Жанр: Драма, биография
Выпущено: США, AM Films, Silver Screen Partners IV, Touchstone Pictures
Режиссер: Рон Шелтон
В ролях: Пол Ньюман, Лолита Давидович, Джерри Хардин, Гейлард Сартейн, Джеффри ДеМанн, Гарленд Бантинг, Ричард Дженкинс, Брэндон Смит, Джей Шевалье, Роберт Вул

О фильме: Нет страшнее и изощрённее оружия, чем женское коварство. С его помощью разбиваются не только сердца, но и судьбы, карьеры и даже жизни. Познакомившись со звездой стриптиза Блэйз Стар, губернатор Луизианы Эрл Лонг и не подозревал, насколько сокрушительной для карьеры окажется его связь с этой блистательной и коварной женщиной. Политический скандал, который разразится вокруг их персон — это только верхушка айсберга.

Качество: BDRip
Видео: XviD, 1902 Кбит/с, 720x400
Аудио: Русский, английский (АС3, 2 ch, 192 Кбит/с)
Размер: 2.05 ГБ
Продолжительность: 01:57:33
Перевод: Дублированный, авторский
Субтитры: Английские (для слабослышащих)

Авторский перевод - Алексей Михалёв.

Сравнение с исходником



MediaInfo
Общее
Полное имя : E:VideoBlejz.1989.XviD.BDRipBlejz.1989.eng.SDH.srt
Размер файла : 255 Кбайт

Общее
Полное имя : E:VideoBlejz.1989.XviD.BDRipBlejz.1989.Original.eng.ac3
Формат : AC-3
Формат/Информация : Audio Coding 3
Размер файла : 161 Мбайт
Продолжительность : 1 ч. 57 м.
Режим общего битрейта : Постоянный
Общий поток : 192 Кбит/сек

Аудио
Формат : AC-3
Формат/Информация : Audio Coding 3
Расширение режима : CM (complete main)
Параметр Endianness формата : Big
Продолжительность : 1 ч. 57 м.
Вид битрейта : Постоянный
Битрейт : 192 Кбит/сек
Каналы : 2 канала
Расположение каналов : Front: L R
Частота : 48,0 КГц
Битовая глубина : 16 бит
Метод сжатия : С потерями
Размер потока : 161 Мбайт (100%)

Общее
Полное имя : E:VideoBlejz.1989.XviD.BDRipBlejz.1989.XviD.BDRip.avi
Формат : AVI
Формат/Информация : Audio Video Interleave
Размер файла : 1,89 Гбайт
Продолжительность : 1 ч. 57 м.
Общий поток : 2300 Кбит/сек
Программа кодирования : VirtualDubMod 1.5.10.2 (build 2540/release)
Библиотека кодирования : VirtualDubMod build 2540/release

Видео
Идентификатор : 0
Формат : MPEG-4 Visual
Профиль формата : Advanced Simple@L5
Параметр BVOP формата : 1
Параметр QPel формата : Нет
Параметр GMC формата : Без точки перехода
Параметр матрицы формата : Default (H.263)
Режим смешивания : Сжатый битовый поток
Идентификатор кодека : XVID
Идентификатор кодека/Подсказка : XviD
Продолжительность : 1 ч. 57 м.
Битрейт : 1902 Кбит/сек
Ширина : 720 пикселей
Высота : 400 пикселей
Соотношение сторон : 16:9
Частота кадров : 23,976 кадра/сек
Цветовое пространство : YUV
Субдискретизация насыщенности : 4:2:0
Битовая глубина : 8 бит
Тип развёртки : Прогрессивная
Метод сжатия : С потерями
Бит/(Пиксели*Кадры) : 0.275
Размер потока : 1,56 Гбайт (83%)
Библиотека кодирования : XviD 1.2.1 (UTC 2008-12-04)

Аудио #1
Идентификатор : 1
Формат : AC-3
Формат/Информация : Audio Coding 3
Расширение режима : CM (complete main)
Параметр Endianness формата : Big
Идентификатор кодека : 2000
Продолжительность : 1 ч. 57 м.
Вид битрейта : Постоянный
Битрейт : 192 Кбит/сек
Каналы : 2 канала
Расположение каналов : Front: L R
Частота : 48,0 КГц
Битовая глубина : 16 бит
Метод сжатия : С потерями
Размер потока : 161 Мбайт (8%)
Выравнивание : Разделение по промежуткам
Продолжительность промежутка : 42 мс. (1,00 видеокадр)
Время предзагрузки промежутка : 500 мс.

Аудио #2
Идентификатор : 2
Формат : AC-3
Формат/Информация : Audio Coding 3
Расширение режима : CM (complete main)
Параметр Endianness формата : Big
Идентификатор кодека : 2000
Продолжительность : 1 ч. 57 м.
Вид битрейта : Постоянный
Битрейт : 192 Кбит/сек
Каналы : 2 канала
Расположение каналов : Front: L R
Частота : 48,0 КГц
Битовая глубина : 16 бит
Метод сжатия : С потерями
Размер потока : 161 Мбайт (8%)
Выравнивание : Разделение по промежуткам
Продолжительность промежутка : 42 мс. (1,00 видеокадр)
Время предзагрузки промежутка : 500 мс.
Скриншоты




Залил: msltel
Размер: 2.05 GB (2197187180 Bytes)
загрузка...
Рейтинг →
 (голосов: 1, оценка 3/5, голосовать можно 1 раз )

Другие торренты по теме:

  • Блэйз / Blaze (1989) BDRip 1080p | D, A
  • Блэйз / Blaze (1989) BDRip 720p | D, A
  • Модести Блэйз / Modesty Blaise (1966) DVDRip-AVC
  • Приключения Модести Блэйз / My Name Is Modesty: A Modesty Blaise Adventure / 2004 / ПМ / DVDRip


    • Комментарии (0):

      Информация

      Информация

        Посетители, находящиеся в группе Гости, не могут оставлять комментарии в данной новости.

        ↓ Меню



        ↓ Опрос

        А Вы добавили сайт в закладки?
        Да
        Не


        Top 10 за месяц (Фильмы)