.
Авторизация | Регистрация
Хочешь лучшие торренты? Добавь свой email!
Добавить
» » Вкус сайры (Осенний полдень) / Sanma no aji (An Autumn Afternoon) (1962) BDRip | P2 скачать торрент бесплатно




    Вкус сайры (Осенний полдень) / Sanma no aji (An Autumn Afternoon) (1962) BDRip | P2 скачать торрент бесплатно

    Опубликовал: Админ | Дата: 27-02-2015, 11:09 | Просмотров: 346



    Название: Вкус сайры (Осенний полдень)
    Оригинальное название: Sanma no aji (An Autumn Afternoon)
    Год выпуска: 1962
    Жанр: Драма
    Выпущено: Япония, Shochiku Company
    Режиссер: Ясудзиро Одзу
    В ролях: Тисю Рю, Сима Ивасита, Кэйдзи Сада, Марико Окада, Тэруо Ёсида, Норико Маки, Синичиро Миками, Нобуо Накамура, Эйдзиро Тоно, Кунико Миякэ

    О фильме: Мужчина по имени Шухей Хираяма счастлив своей налаженной жизнью. У него хорошая работа, а вскоре его ожидает долгожданный выход на пенсию. У него трое замечательных детей: старший сын женат и счастлив в браке, младший сын устроился на приличную работу, а дочь, после кончины его жены, занимается всеми делами по дому. Однако Шухей постепенно начинает понимать, что его дочь не обязана вечно ухаживать за ним и его жилищем, пока он не умрёт, и тогда он решает устроить для своей дочери брак…

    Качество: BDRip
    Видео: XviD, 2298 Кбит/с, 720x544
    Аудио: Русский, японский (АС3, 2 ch, 192 Кбит/с)
    Размер: 2.12 ГБ
    Продолжительность: 01:52:44
    Перевод: Профессиональный двухголосый
    Субтитры: Английские

    Сравнение с исходником



    Из отзывов...
    Kamdok89

    Последний шедевр

    Это был только 2-й просмотренный мною фильм Ясодзиро Одзу. Первым была Ранняя Весна. Может быть, из-за некачественного перевода фильм не произвёл на меня большого впечатления. Однако этот фильм мне удалось посмотреть с качественным переводом.
    Фильм - просто шедевр! Разговоры стариков о старости, жизни своих детей, прошедших временах вызывают сочувствие и грусть.
    История о том, как самое ценное и дорогое, дети, уходят из твоей жизни, когда ты стар, и ещё более печальней становится, когда понимаешь, что так и должно быть. Иначе можно погубить их жизни, став для них обузой, и не дать им жить своей жизнью. Режиссёр отлично показал это на примере школьного учителя Тыквы. Именно глядя на него, главный герой задумывается о том, чтобы наконец отпустить дочь, которая была рядом всю жизнь.

    9 из 10

    Кинопоиск
    MediaInfo
    Общее
    Полное имя : E:VideoVkus.sajry.1962.XviD.BDRipVkus.sajry.1962.eng.srt
    Размер файла : 169 Кбайт

    Общее
    Полное имя : E:VideoVkus.sajry.1962.XviD.BDRipVkus.sajry.1962.Original.jpn.ac3
    Формат : AC-3
    Формат/Информация : Audio Coding 3
    Размер файла : 155 Мбайт
    Продолжительность : 1 ч. 52 м.
    Режим общего битрейта : Постоянный
    Общий поток : 192 Кбит/сек

    Аудио
    Формат : AC-3
    Формат/Информация : Audio Coding 3
    Расширение режима : CM (complete main)
    Параметр Endianness формата : Big
    Продолжительность : 1 ч. 52 м.
    Вид битрейта : Постоянный
    Битрейт : 192 Кбит/сек
    Каналы : 2 канала
    Расположение каналов : Front: L R
    Частота : 48,0 КГц
    Битовая глубина : 16 бит
    Метод сжатия : С потерями
    Размер потока : 155 Мбайт (100%)

    Общее
    Полное имя : E:VideoVkus.sajry.1962.XviD.BDRipVkus.sajry.1962.XviD.BDRip.avi
    Формат : AVI
    Формат/Информация : Audio Video Interleave
    Размер файла : 1,97 Гбайт
    Продолжительность : 1 ч. 52 м.
    Общий поток : 2499 Кбит/сек
    Программа кодирования : VirtualDubMod 1.5.10.2 (build 2540/release)
    Библиотека кодирования : VirtualDubMod build 2540/release

    Видео
    Идентификатор : 0
    Формат : MPEG-4 Visual
    Профиль формата : Advanced Simple@L5
    Параметр BVOP формата : 1
    Параметр QPel формата : Нет
    Параметр GMC формата : Без точки перехода
    Параметр матрицы формата : Default (H.263)
    Режим смешивания : Сжатый битовый поток
    Идентификатор кодека : XVID
    Идентификатор кодека/Подсказка : XviD
    Продолжительность : 1 ч. 52 м.
    Битрейт : 2298 Кбит/сек
    Ширина : 720 пикселей
    Высота : 544 пикселя
    Соотношение сторон : 4:3
    Частота кадров : 24,000 кадра/сек
    Цветовое пространство : YUV
    Субдискретизация насыщенности : 4:2:0
    Битовая глубина : 8 бит
    Тип развёртки : Прогрессивная
    Метод сжатия : С потерями
    Бит/(Пиксели*Кадры) : 0.244
    Размер потока : 1,81 Гбайт (92%)
    Библиотека кодирования : XviD 1.2.1 (UTC 2008-12-04)

    Аудио
    Идентификатор : 1
    Формат : AC-3
    Формат/Информация : Audio Coding 3
    Расширение режима : CM (complete main)
    Параметр Endianness формата : Big
    Идентификатор кодека : 2000
    Продолжительность : 1 ч. 52 м.
    Вид битрейта : Постоянный
    Битрейт : 192 Кбит/сек
    Каналы : 2 канала
    Расположение каналов : Front: L R
    Частота : 48,0 КГц
    Битовая глубина : 16 бит
    Метод сжатия : С потерями
    Размер потока : 155 Мбайт (8%)
    Выравнивание : Разделение по промежуткам
    Продолжительность промежутка : 42 мс. (1,00 видеокадр)
    Время предзагрузки промежутка : 500 мс.
    Скриншоты





    Залил: msltel
    Размер: 2.12 GB (2275623664 Bytes)
    загрузка...
    Рейтинг →
     (голосов: 1, оценка 4/5, голосовать можно 1 раз )

    Другие торренты по теме:

  • Вкус сайры / Осенний полдень / Sanma no aji / An Autumn Afternoon (1962) BDRip 720p | P2
  • Вкус сайры / Осенний полдень / Sanma no aji / An Autumn Afternoon (1962) BDRip 1080p | P2
  • Вкус сайры / Осенний полдень / Sanma no aji / An Autumn Afternoon (1962) BDRip от HQ-ViDEO скачать через торрент бесплатно


    • Комментарии (0):

      Информация

      Информация

        Посетители, находящиеся в группе Гости, не могут оставлять комментарии в данной новости.

        ↓ Меню



        ↓ Опрос

        А Вы добавили сайт в закладки?
        Да
        Не


        Top 10 за месяц (Фильмы)