.
Авторизация | Регистрация
Хочешь лучшие торренты? Добавь свой email!
Добавить
» » Стартрек: Возмездие / Star Trek Into Darkness (2013) BDRip 1080p | D скачать торрент бесплатно




    Стартрек: Возмездие / Star Trek Into Darkness (2013) BDRip 1080p | D скачать торрент бесплатно

    Опубликовал: Админ | Дата: 27-02-2015, 11:09 | Просмотров: 272



    Информация о фильме
    Название: Стартрек: Возмездие
    Оригинальное название: Star Trek Into Darkness
    Год выпуска: 2013
    Жанр: Фантастика, боевик, приключения
    Выпущено: США, Bad Robot, Kurtzman/Orci, Paramount Pictures, Skydance Productions
    Режиссер: Джей Джей Абрамс
    В ролях: Крис Пайн, Закари Куинто, Зои Салдана, Карл Урбан, Бенедикт Камбербэтч, Саймон Пегг, Элис Ив, Антон Ельчин, Джон Чо, Питер Уэллер

    О фильме: Вернувшись на Землю, команда корабля Энтерпрайз обнаруживает, что деятельность и принципы их организации подорваны изнутри. Флот скован необъяснимым ужасом и бездействует, пока мир все глубже погружается в бездну.Капитан Кирк берет на себя руководство операцией по поимке злодея, ответственного за этот хаос и способного уничтожить все человечество.В запутанной игре не на жизнь, а на смерть, любовь и дружба будут принесены в жертву ради единственного, что осталось у Кирка — его команды.



    Файл
    Качество: BDRip (1080p)
    Видео: MPEG-4 AVC, 14.2 Мбит/с, 1918x800, 23.976 кадра/сек
    Аудио: Русский (AC3, 6 ch, 448 Кбит/с), английский (AC3, 6 ch, 640 Кбит/с)
    Размер: 14.39 ГБ
    Продолжительность: 02:12:05
    Перевод: Дублированный не кинотеатральный
    Субтитры: Русские, английские

    Семпл
    MI
    Star.Trek.Into.Darkness.2013.D.BDRip.1080p.mkv
    Format : Matroska
    Format version : Version 4 / Version 2
    File size : 14.4 GiB
    Duration : 2h 12mn
    Overall bit rate : 15.6 Mbps
    Encoded date : UTC 2013-09-03 08:07:56
    Writing application : mkvmerge v6.3.0 (;You can;t stop me!;) built on Jun 28 2013 20:09:41
    Writing library : libebml v1.3.0 libmatroska v1.4.0

    Video
    ID : 1
    Format : AVC
    Format/Info : Advanced Video Codec
    Format profile : High@L4.1
    Format settings, CABAC : Yes
    Format settings, ReFrames : 5 frames
    Codec ID : V_MPEG4/ISO/AVC
    Duration : 2h 12mn
    Bit rate : 14.2 Mbps
    Width : 1 918 pixels
    Height : 800 pixels
    Display aspect ratio : 2.40:1
    Frame rate mode : Constant
    Frame rate : 23.976 fps
    Color space : YUV
    Chroma subsampling : 4:2:0
    Bit depth : 8 bits
    Scan type : Progressive
    Bits/(Pixel*Frame) : 0.386
    Stream size : 13.1 GiB (91%)
    Writing library : x264 core 132 r2323 704 51 d571b1c tMod 8-bit@4:2:0 X86_64
    Encoding settings : cabac=1 / ref=5 / deblock=1:-3:-3 / analyse=0x3:0x113 / me=umh / subme=11 / psy=1 / fade_compensate=0.00 / psy_rd=1.10:0.00 / mixed_ref=1 / me_range=32 / chroma_me=1 / trellis=2 / 8x8dct=1 / cqm=0 / deadzone=21,11 / fast_pskip=0 / chroma_qp_offset=-2 / threads=36 / lookahead_threads=6 / sliced_threads=0 / nr=0 / decimate=0 / interlaced=0 / bluray_compat=0 / constrained_intra=0 / fgo=0 / bframes=9 / b_pyramid=2 / b_adapt=2 / b_bias=0 / direct=3 / weightb=1 / open_gop=0 / weightp=2 / keyint=240 / keyint_min=24 / scenecut=40 / intra_refresh=0 / rc_lookahead=240 / rc=crf / mbtree=1 / crf=17.9000 / qcomp=0.70 / qpmin=0 / qpmax=69 / qpstep=4 / ip_ratio=1.10 / aq=4:0.80 / aq-sensitivity=10.00 / aq-factor=1.00:1.00:1.00 / aq2=0 / aq3=0
    Language : English
    Default : Yes
    Forced : Yes

    Audio #1
    ID : 2
    Format : AC-3
    Format/Info : Audio Coding 3
    Mode extension : CM (complete main)
    Format settings, Endianness : Big
    Codec ID : A_AC3
    Duration : 2h 12mn
    Bit rate mode : Constant
    Bit rate : 448 Kbps
    Channel(s) : 6 channels
    Channel positions : Front: L C R, Side: L R, LFE
    Sampling rate : 48.0 KHz
    Bit depth : 16 bits
    Compression mode : Lossy
    Stream size : 423 MiB (3%)
    Language : Russian
    Default : Yes
    Forced : Yes

    Audio #2
    ID : 3
    Format : AC-3
    Format/Info : Audio Coding 3
    Mode extension : CM (complete main)
    Format settings, Endianness : Big
    Codec ID : A_AC3
    Duration : 2h 12mn
    Bit rate mode : Constant
    Bit rate : 640 Kbps
    Channel(s) : 6 channels
    Channel positions : Front: L C R, Side: L R, LFE
    Sampling rate : 48.0 KHz
    Bit depth : 16 bits
    Compression mode : Lossy
    Stream size : 605 MiB (4%)
    Language : English
    Default : No
    Forced : No

    Text #1
    ID : 4
    Format : UTF-8
    Codec ID : S_TEXT/UTF8
    Codec ID/Info : UTF-8 Plain Text
    Language : Russian
    Default : No
    Forced : No

    Text #2
    ID : 5
    Format : UTF-8
    Codec ID : S_TEXT/UTF8
    Codec ID/Info : UTF-8 Plain Text
    Language : English
    Default : No
    Forced : No

    Скриншоты




    Огромное спасибо SmashChat за сборку рипа
    Размер: 14.39 GB (15450123517 Bytes)
    загрузка...
    Рейтинг →
     (голосов: 1, оценка 4/5, голосовать можно 1 раз )

    Другие торренты по теме:

  • Стартрек: Возмездие / Star Trek Into Darkness (2013) HDRip-720p | D | Трейлер
  • OST - Стартрек: Возмездие / Star Trek: Into Darkness (2013) AAC
  • Стартрек: Возмездие / Star Trek Into Darkness (2013) HDRip | Звук с TS
  • Стартрек: Возмездие / Star Trek Into Darkness (2013) BDRip 720p | Звук с TS
  • Стартрек: Возмездие / Star Trek Into Darkness (2013) BDRip 1080p | 3D-Video | halfOU | Звук с TS
  • Стартрек: Возмездие / Star Trek Into Darkness (2013) Blu-Ray Remux | Звук с TS
  • Стартрек: Возмездие / Star Trek Into Darkness (2013) BDRip | Звук с TS
  • Стартрек: Возмездие / Star Trek Into Darkness (2013) BDRip 720p | L1


    • Комментарии (0):

      Информация

      Информация

        Посетители, находящиеся в группе Гости, не могут оставлять комментарии в данной новости.

        ↓ Меню



        ↓ Опрос

        А Вы добавили сайт в закладки?
        Да
        Не


        Top 10 за месяц (Фильмы)