.
Авторизация | Регистрация
Хочешь лучшие торренты? Добавь свой email!
Добавить
» » Побег: Живой груз / Escape: Human Cargo (1998) DVDRip | от NovaLan скачать торрент бесплатно




    Побег: Живой груз / Escape: Human Cargo (1998) DVDRip | от NovaLan скачать торрент бесплатно

    Опубликовал: Админ | Дата: 27-02-2015, 11:09 | Просмотров: 336






    Страна: США
    Производство: Neufeld Rehme Productions
    Жанр: Триллер
    Год выпуска: 1998

    Продолжительность: 01:44:14


    Перевод: Профессиональный многоголосый

    Оригинальная аудиодорожка: Нет

    Cубтитры: Нет


    Режиссер: Саймон Уинсер


    В ролях: Трит Уильямс, Стивен Лэнг, Сэссон Габаи, Зеев Ревах, Лоуренс Дэйн, Ринан Хаим, Ури Гавриел, Джанет-Дэйн Грин, Брэндон Боун, Кристен Боун




    Описание: Отправившись в Саудовскую Аравию на подписание контракта, Джон МакДональд рассчитывал пробыть там максимум неделю. Но поездка затянулась на долгие месяцы. После того, как он и местные шейхи разошлись во взглядах на бизнес, Джона похитили из гостиничного номера, отобрали паспорт и бросили в тюрьму. Ему на помощь пришел новый друг — Деннис, американец, пять лет проработавший в Саудовской Аравии. Чтобы помочь Джону осуществить дерзкий план побега, Деннис поставил на карту собственную свободу. А Джон, чтобы вернуться домой, к семье, готов рискнуть жизнью…

    Исходник: DVD5 R5

    Тип релиза: DVDRip

    Контейнер: AVI


    Видео: 704x528 (1.33:1), 23.976 fps, XviD MPEG-4 ~1537 kbps avg, 0.17 bit/pixel
    Аудио: 48 kHz, AC3 5.0 ~ 448.00 kbps avg



    MediaInfo
    Общее
    Полное имя : D:1АААПобег_Живой груз.avi
    Формат : AVI
    Формат/Информация : Audio Video Interleave
    Размер файла : 1,45 Гбайт
    Продолжительность : 1 ч. 44 м.
    Общий поток : 1995 Кбит/сек
    Программа кодирования : VirtualDubMod 1.5.10.3 | www.virtualdub-fr.org || (build 2550/release)
    Библиотека кодирования : VirtualDubMod build 2550/release

    Видео
    Идентификатор : 0
    Формат : MPEG-4 Visual
    Профиль формата : Advanced Simple@L5
    Параметр BVOP формата : 2
    Параметр QPel формата : Нет
    Параметр GMC формата : Без точки перехода
    Параметр матрицы формата : Default (MPEG)
    Режим смешивания : Сжатый битовый поток
    Идентификатор кодека : XVID
    Идентификатор кодека/Подсказка : XviD
    Продолжительность : 1 ч. 44 м.
    Битрейт : 1538 Кбит/сек
    Ширина : 704 пикселя
    Высота : 528 пикселей
    Соотношение сторон : 4:3
    Частота кадров : 23,976 кадра/сек
    Цветовое пространство : YUV
    Субдискретизация насыщенности : 4:2:0
    Битовая глубина : 8 бит
    Тип развёртки : Прогрессивная
    Метод сжатия : С потерями
    Бит/(Пиксели*Кадры) : 0.173
    Размер потока : 1,12 Гбайт (77%)
    Библиотека кодирования : XviD 1.2.1 (UTC 2008-12-04)

    Аудио
    Идентификатор : 1
    Формат : AC-3
    Формат/Информация : Audio Coding 3
    Расширение режима : CM (complete main)
    Параметр Endianness формата : Big
    Идентификатор кодека : 2000
    Продолжительность : 1 ч. 44 м.
    Вид битрейта : Постоянный
    Битрейт : 448 Кбит/сек
    Каналы : 5 каналов
    Расположение каналов : Front: L C R, Side: L R
    Частота : 48,0 КГц
    Битовая глубина : 16 бит
    Метод сжатия : С потерями
    Размер потока : 334 Мбайт (22%)
    Выравнивание : Разделение по промежуткам
    Продолжительность промежутка : 42 мс. (1,00 видеокадр)
    Время предзагрузки промежутка : 500 мс.







    Скриншоты




    Релиз группа:

    Автор рипа:
    Залил: YArl
    Размер: 1.45 GB (1559504896 Bytes)
    загрузка...
    Рейтинг →
     (голосов: 1, оценка 5/5, голосовать можно 1 раз )

    Другие торренты по теме:

  • Великий побег / Большой побег / The Great Escape (1963) BDRip от HQCLUB
  • Побег / Побег из тюрьмы / Prison Break (2007) НDRip от Scarabey | Ren-tv
  • Побег / Побег из тюрьмы / Prison Break (2006) НDRip от Scarabey | Ren-tv
  • Побег / Побег из тюрьмы / Prison Break (2005 - 2006) НDRip от Scarabey | Ren-tv
  • Побег / Побег из тюрьмы / Prison Break (2008) НDRip от Scarabey | C. P. И.
  • Побег из тюрьмы: Финальный побег / На свободе / Prison Break: The Final Break (2008) НDRip от Scarabey | D
  • Побег из тюрьмы (1-4 сезоны Финальный побег) / Prison Break / 2005-2009 / BDRip (720p) скачать через торрент бесплатно
  • Большой побег / Великий побег / The Great Escape (1963) BDRip-AVC от MediaClub


    • Комментарии (0):

      Информация

      Информация

        Посетители, находящиеся в группе Гости, не могут оставлять комментарии в данной новости.

        ↓ Меню



        ↓ Опрос

        А Вы добавили сайт в закладки?
        Да
        Не


        Top 10 за месяц (Фильмы)