.
Авторизация | Регистрация
Хочешь лучшие торренты? Добавь свой email!
Добавить
» » Привет, мне пора / Hello I Must Be Going (2012) HDRip от BitTracker скачать торрент бесплатно




    Привет, мне пора / Hello I Must Be Going (2012) HDRip от BitTracker скачать торрент бесплатно

    Опубликовал: Админ | Дата: 27-02-2015, 11:09 | Просмотров: 356



    Информация о фильме
    Название: Привет, мне пора
    Оригинальное название: Hello I Must Be Going
    Год выхода: 2012
    Жанр: драма, мелодрама, комедия
    Режиссер: Тодд Луисо / Todd Louiso
    В ролях: Мелани Лински, Блайт Даннер, Джон Рубинстайн, Сара Чейз, Дэниэл Эрик Голд, Тори Фейнштейн, Дэйв Кениг, Грета Ли, Мира Симхан, Джули Уайт, Дэмиэн Янг, Кристофер Эбботт

    О фильме:
    Эми Мински разведена и деморализована, и ее перспективы на будущее весьма малообещающи. В возрасте 35 лет ей приходится вернуться в родительский дом. В тот момент, когда ожидание любви становится нестерпимо, и депрессия подходит близко, на горизонте появляется самоуверенный прекрасный 19-летний юноша. Он разжигает в Эми тлевший фитилек страсти и неожиданно освещает возможный путь к самопознанию.



    Страна: США
    Студия: Next Wednesday Productions, Skyscraper Content, Union Entertainment Group (II)
    Продолжительность: 01:33:49
    Перевод: Профессиональное (многоголосое)

    Файл
    Кодек: XviD
    Качество: HDRip (Исх. BDRip 1080p)
    Видео: 656x368 (1.78:1), 23.976 fps, XviD build 50 ~972 kbps avg, 0.17 bit/pixel
    Звук: 48 kHz, MPEG Layer 3, 2 ch, ~128.00 kbps avg
    Субтитры: нет

    Семпл

    MediaInfo

    Общее
    Полное имя : S:ФильмыПривет, мне пора. 2012. HDRip (AleksSin).avi
    Формат : AVI
    Формат/Информация : Audio Video Interleave
    Размер файла : 745 Мбайт
    Продолжительность : 1 ч. 33 м.
    Общий поток : 1109 Кбит/сек
    Программа кодирования : VirtualDubMod 1.5.10.3 | www.virtualdub-fr.org || (build 2550/release)
    Библиотека кодирования : VirtualDubMod build 2550/release

    Видео
    Идентификатор : 0
    Формат : MPEG-4 Visual
    Профиль формата : Advanced Simple@L5
    Параметр BVOP формата : 2
    Параметр QPel формата : Нет
    Параметр GMC формата : Без точки перехода
    Параметр матрицы формата : Default (H.263)
    Идентификатор кодека : XVID
    Идентификатор кодека/Подсказка : XviD
    Продолжительность : 1 ч. 33 м.
    Битрейт : 972 Кбит/сек
    Ширина : 656 пикс.
    Высота : 368 пикс.
    Соотношение сторон : 16:9
    Частота кадров : 23,976 кадр/сек
    Цветовое пространство : YUV
    Подвыборка цветности : 4:2:0
    Битовая глубина : 8 бит
    Тип развёртки : Прогрессивная
    Метод сжатия : С потерями
    Бит/(Пиксели*Кадры) : 0.168
    Размер потока : 652 Мбайт (88%)
    Библиотека кодирования : XviD 1.2.1 (UTC 2008-12-04)

    Аудио
    Идентификатор : 1
    Формат : MPEG Audio
    Версия формата : Version 1
    Профиль формата : Layer 3
    Идентификатор кодека : 55
    Идентификатор кодека/Подсказка : MP3
    Продолжительность : 1 ч. 33 м.
    Вид битрейта : Постоянный
    Битрейт : 128 Кбит/сек
    Каналы : 2 канала
    Частота : 48,0 КГц
    Метод сжатия : С потерями
    Размер потока : 85,9 Мбайт (12%)
    Выравнивание : Соединение по промежуткам
    Продолжительность промежутка : 42 мс. (1,00 видеокадр)
    Время предзагрузки промежутка : 504 ms
    Библиотека кодирования : LAME3.99r
    Залил: AleksSin
    Размер: 744.55 MB (780718080 Bytes)

    загрузка...
    Рейтинг →
     (голосов: 1, оценка 3/5, голосовать можно 1 раз )

    Другие торренты по теме:

  • Привет, мне пора / Hello I Must Be Going (2012) WEB-DLRip | P
  • Привет, мне пора / Hello I Must Be Going (2012) HDRip от Scarabey | Р
  • Привет, мне пора / Hello I Must Be Going (2012) HDRip от Scarabey | Р


    • Комментарии (0):

      Информация

      Информация

        Посетители, находящиеся в группе Гости, не могут оставлять комментарии в данной новости.

        ↓ Меню



        ↓ Опрос

        А Вы добавили сайт в закладки?
        Да
        Не


        Top 10 за месяц (Фильмы)