.
Авторизация | Регистрация
Хочешь лучшие торренты? Добавь свой email!
Добавить
» » Проспект Бразилии / Avenida Brasil (2012) HDTVRip | Alternative Production скачать торрент бесплатно




    Проспект Бразилии / Avenida Brasil (2012) HDTVRip | Alternative Production скачать торрент бесплатно

    Опубликовал: Админ | Дата: 27-02-2015, 11:09 | Просмотров: 776


    Проспект Бразилии / Avenida Brasil



    Год выпуска: 2012
    Страна: Бразилия
    Жанр: Драма, комедия, детектив
    Продолжительность: 00:45:00

    Перевод:Любительский (двухголосый закадровый) Alternative Production

    Русские субтитры: Нет

    Режиссёр: Рикардо Ваддингтон, Андре Камара, Густаво Фернандес, Паоло Сильвестрини, Амора Маутнер.

    В ролях: Дебора Фалабелла, Адриана Эстевес, Мурило Бенисио, Кайя Реймонд, Элоиза Периссе, Марселлу Новаес, Вера Ольц, Жозе де Абреу, Элиане Жардини, Маркос Карузо, Летисия Иснард, Изис Вальверде, Бьянка Компрату, Отавио Аугусто, Паула Бурламаки, Айлтон Граса, Алешандре Боржес, Каролина Ферраз, Дебора Блок, Камила Моргаду, Тьяго Мартинс и другие.

    Описание: Женезио одинокий вдовец и отец маленькой девочки по имени Рита, женится на простой девушке Карминии, считая, что она как никто лучше сможет заменить мать девочке. Сама же скрывает за своей приятной улыбкой и добрыми намерениями свою подлую сущность коварной особы. Она при поддержке Макса убирает со своего пути мужа, и после его трагической смерти понимает что единственным наследником старика осталась Рита. Карминия выгоняет свою падчерицу на свалку.




    Все раздачи сериала

    Качество: HDTVRip
    Формат: AVI
    Видео кодек: XviD
    Аудио кодек: MP3
    Видео: 720x400 (1.80:1), 29.970 fps, XviD MPEG-4 ~1693 kbps avg, 0.20 bit/pixel
    Аудио: 48 kHz, MPEG Layer 3, 2 ch, ~192.00 kbps avg

    Релиз от:


    MediaInfo

    codeGeneral
    Complete name : D:ФільмиНе удалятыРАЗДАЧАПроспект Бразилии Alternative ProductionПроспект Бразилии 51 серия Alternative Production.avi
    Формат : AVI
    Формат/Информация : Audio Video Interleave
    Размер файла : 601 Мбайт
    Продолжительность : 44 м.
    Общий поток : 1897 Кбит/сек
    Библиотека кодирования : VirtualDub build 32842/release

    Видео
    Идентификатор : 0
    Формат : MPEG-4 Visual
    Профиль формата : Advanced Simple@L5
    Параметр BVOP формата : 2
    Параметр QPel формата : Нет
    Параметр GMC формата : Без точки перехода
    Параметр матрицы формата : Default (H.263)
    Режим смешивания : Сжатый битовый поток
    Идентификатор кодека : XVID
    Идентификатор кодека/Подсказка : XviD
    Продолжительность : 44 м.
    Битрейт : 1693 Кбит/сек
    Ширина : 720 пикс.
    Высота : 400 пикс.
    Соотношение сторон : 16:9
    Частота кадров : 29,970 кадр/сек
    Цветовое пространство : YUV
    Подвыборка цветности : 4:2:0
    Битовая глубина : 8 бит
    Тип развёртки : Прогрессивная
    Метод сжатия : С потерями
    Бит/(Пиксели*Кадры) : 0.196
    Размер потока : 536 Мбайт (89%)
    Библиотека кодирования : XviD 64

    Аудио
    Идентификатор : 1
    Формат : MPEG Audio
    Версия формата : Version 1
    Профиль формата : Layer 3
    Режим : Joint stereo
    Идентификатор кодека : 55
    Идентификатор кодека/Подсказка : MP3
    Продолжительность : 44 м.
    Вид битрейта : Постоянный
    Битрейт : 192 Кбит/сек
    Канал(ы) : 2 канала(ов)
    Частота : 48,0 КГц
    Метод сжатия : С потерями
    Размер потока : 60,8 Мбайт (10%)
    Выравнивание : Разделение по промежуткам
    Продолжительность промежутка : 33 мс. (1,00 видеокадр)
    Время предзагрузки промежутка : 500 ms/code



    Скриншоты






    Список серий и график выхода

    54 серия - Неизвестно


    Залил: Mixadencik
    Размер: 1.75 GB (1881984560 Bytes)
    загрузка...
    Рейтинг →
     (голосов: 1, оценка 4/5, голосовать можно 1 раз )

    Другие торренты по теме:

  • Проспект Бразилии / Avenida Brasil (2012) SATRip | P
  • Проспект Бразилии / Avenida Brasil (2012) SATRip | P (OPT)
  • Проспект Бразилии / Avenida Brasil (2012) HDTVRip | L2


    • Комментарии (0):

      Информация

      Информация

        Посетители, находящиеся в группе Гости, не могут оставлять комментарии в данной новости.

        ↓ Меню



        ↓ Опрос

        А Вы добавили сайт в закладки?
        Да
        Не


        Top 10 за месяц (Фильмы)