.
Авторизация | Регистрация
Хочешь лучшие торренты? Добавь свой email!
Добавить
» » Властелин любви / The Look of Love (2013) BDRip 720p от Youtracker | D | лицензия скачать торрент бесплатно




    Властелин любви / The Look of Love (2013) BDRip 720p от Youtracker | D | лицензия скачать торрент бесплатно

    Опубликовал: Админ | Дата: 27-02-2015, 11:09 | Просмотров: 290

    Введи нас в искушение



    Страна: Великобритания, США
    Студия: Baby Cow Films, Film Four Ltd....
    Жанр: драма, комедия, биография
    Год выпуска: 2013
    Продолжительность: 01:41:01

    Перевод: Профессиональный (дублированный)
    Субтитры: английский
    Оригинальная аудиодорожка: английский

    Режиссер: Рейнир Лингдаль / Reynir Lyngdal

    В ролях: Стив Куган, Анна Фрил, Имоджен Путс, Тэмсин Эгертон, Крис Эддисон, Джеймс Лэнс, Ширли Хендерсон, Дэвид Уоллиамс, Мэтт Лукас, Саймон Бёрд...

    Описание: Пауль Раймонд был прозван в прессе Королём Сохо из-за принадлежащего ему огромного клуба и невероятного количества недвижимого имущества, что наряду с его порнобизнесом принесло ему состояние в миллиарды фунтов.



    Исходник: The.Look.of.Love.2013.720p.BluRay.DD5.1.x264-EbP DVD5 R5
    Тип релиза: BDRip 720p
    Контейнер: MKV

    Видео: 1280x546 (2.35:1), 24.000 fps, H264 ~5370 kbps avg, 0.320 bit/pixel
    Аудио 1: Русский 48 kHz, AC3, 6 ch, 384.00 kbps Constant
    Аудио 2: Английский 48 kHz, AC3, 6 ch, 640.00 kbps Constant
    MediaInfo

    Общее
    Полное имя : Vlastelin.lyubvi.2013.D.BDRip.720p.mkv
    Формат : Matroska
    Версия формата : Version 4 / Version 2
    Размер файла : 4,60 Гбайт
    Продолжительность : 1 ч. 41 м.
    Общий поток : 6524 Кбит/сек
    Дата кодирования : UTC 2013-08-30 19:19:21
    Программа кодирования : mkvmerge v6.1.0 (;Old Devil;) built on Mar 2 2013 14:32:37
    Библиотека кодирования : libebml v1.3.0 libmatroska v1.4.0

    Видео
    Идентификатор : 1
    Формат : AVC
    Формат/Информация : Advanced Video Codec
    Профиль формата : High@L4.1
    Параметр CABAC формата : Да
    Параметр ReFrames формата : 11 кадров
    Идентификатор кодека : V_MPEG4/ISO/AVC
    Продолжительность : 1 ч. 41 м.
    Битрейт : 5370 Кбит/сек
    Ширина : 1280 пикселей
    Высота : 546 пикселей
    Соотношение сторон : 2,35:1
    Режим частоты кадров : Постоянный
    Частота кадров : 24,000 кадра/сек
    Цветовое пространство : YUV
    Субдискретизация насыщенности : 4:2:0
    Битовая глубина : 8 бит
    Тип развёртки : Прогрессивная
    Бит/(Пиксели*Кадры) : 0.320
    Размер потока : 3,79 Гбайт (82%)
    Заголовок : The Look of Love 2013
    Язык : English
    Default : Да
    Forced : Нет

    Аудио #1
    Идентификатор : 2
    Формат : AC-3
    Формат/Информация : Audio Coding 3
    Расширение режима : CM (complete main)
    Параметр Endianness формата : Big
    Идентификатор кодека : A_AC3
    Продолжительность : 1 ч. 41 м.
    Вид битрейта : Постоянный
    Битрейт : 384 Кбит/сек
    Каналы : 6 каналов
    Расположение каналов : Front: L C R, Side: L R, LFE
    Частота : 48,0 КГц
    Битовая глубина : 16 бит
    Метод сжатия : С потерями
    Размер потока : 277 Мбайт (6%)
    Язык : Russian
    Default : Да
    Forced : Нет

    Аудио #2
    Идентификатор : 3
    Формат : AC-3
    Формат/Информация : Audio Coding 3
    Расширение режима : CM (complete main)
    Параметр Endianness формата : Big
    Идентификатор кодека : A_AC3
    Продолжительность : 1 ч. 41 м.
    Вид битрейта : Постоянный
    Битрейт : 640 Кбит/сек
    Каналы : 6 каналов
    Расположение каналов : Front: L C R, Side: L R, LFE
    Частота : 48,0 КГц
    Битовая глубина : 16 бит
    Метод сжатия : С потерями
    Размер потока : 462 Мбайт (10%)
    Язык : English
    Default : Нет
    Forced : Нет

    Текст
    Идентификатор : 4
    Формат : UTF-8
    Идентификатор кодека : S_TEXT/UTF8
    Идентификатор кодека/Информация : UTF-8 Plain Text
    Язык : English
    Default : Нет
    Forced : Нет

    Меню
    00:00:00.000 : en:00:00:00.000
    00:09:46.250 : en:00:09:46.250
    00:18:56.167 : en:00:18:56.167
    00:25:53.042 : en:00:25:53.042
    00:34:01.542 : en:00:34:01.542
    00:43:25.625 : en:00:43:25.625
    00:52:20.167 : en:00:52:20.167
    01:02:11.958 : en:01:02:11.958
    01:09:39.750 : en:01:09:39.750
    01:14:13.750 : en:01:14:13.750
    01:22:47.917 : en:01:22:47.917
    01:33:07.792 : en:01:33:07.792

    Скриншоты



    Залил: avproh
    Размер: 4.60 GB (4943278823 Bytes)
    загрузка...
    Рейтинг →
     (голосов: 1, оценка 4/5, голосовать можно 1 раз )

    Другие торренты по теме:

  • Властелин любви / The Look of Love (2013) HDRip-AVC | Лицензия
  • Властелин любви / The Look of Love (2013) HDRip от Youtracker | D | лицензия
  • Властелин любви / The Look of Love (2013) BDRip 1080p от Youtracker | D | лицензия
  • Властелин любви / The Look of Love (2013) HDRip-AVC от Youtracker | D | лицензия
  • Властелин любви / The Look of Love (2013) DVD5 R5 от Youtracker | D | лицензия
  • Властелин любви / The Look of Love (2013) HDRip от -=HD-NET=- | КПК
  • Властелин любви / The Look of Love (2013) BDRip-AVC от HELLYWOOD | D | Лицензия
  • Властелин любви / The Look of Love (2013) BDRip от Rulya74


    • Комментарии (0):

      Информация

      Информация

        Посетители, находящиеся в группе Гости, не могут оставлять комментарии в данной новости.

        ↓ Меню



        ↓ Опрос

        А Вы добавили сайт в закладки?
        Да
        Не


        Top 10 за месяц (Фильмы)