.
Авторизация | Регистрация
Хочешь лучшие торренты? Добавь свой email!
Добавить
» » Жетоны ярости / Badges of Fury / Bu Er Shen Tan (2013) HDRip от BitTracker | L1 скачать торрент бесплатно




    Жетоны ярости / Badges of Fury / Bu Er Shen Tan (2013) HDRip от BitTracker | L1 скачать торрент бесплатно

    Опубликовал: Админ | Дата: 27-02-2015, 11:09 | Просмотров: 333



    Информация о фильме
    Название: Жетоны ярости
    Оригинальное название: Badges of Fury / Bu Er Shen Tan
    Год выхода: 2013
    Жанр: Комедийный боевик, криминальный детектив
    Режиссер: Це Минг Вонг / Tsz Ming Wong
    В ролях: Джет Ли, Чжан Вэнь, Сесилия Лю, Мишель Чэнь, Янь Лю, Аарон Шанг, Сингх Хартихан Битто, Лик-Сун Фон, Колин Чоу, Стивен Фан

    О фильме:
    Когда через Гонконг проносится волна жутких убийств, дело поручают двум проблемным полицейским. Это молодой баламут Ван и умудрённый опытом Хуан, который по горло сыт безрассудностью младшего напарника, постоянно втягивающего их обоих в неприятности. После того, как выясняется, что все жертвы были бывшими парнями честолюбивой и перспективной молодой актрисы Лю, их расследование заходит в тупик, и детективы должны начать смертельно опасную игру — чтобы выманить убийцу, одному из них придётся выдать себя за возлюбленного Лю.


    Страна: Китай
    Студия: Enlight Pictures, Hong Kong Pictures International
    Продолжительность: 01:37:58
    Перевод: Перевод: Любительский (одноголосый) Ворон

    Файл
    Кодек: XviD
    Качество: HDRip (Исх. BDRip 720p)
    Видео: 640x272 (2.35:1), 24.000 fps, XviD build 50 ~926 kbps avg, 0.22 bit/pixel
    Звук: 48 kHz, MPEG Layer 3, 2 ch, ~128.00 kbps avg
    Субтитры: нет

    Семпл

    MediaInfo

    Общее
    Полное имя : S:ФильмыЖетоны ярости. 2013. HDRip (AleksSin).avi
    Формат : AVI
    Формат/Информация : Audio Video Interleave
    Размер файла : 745 Мбайт
    Продолжительность : 1 ч. 37 м.
    Общий поток : 1063 Кбит/сек
    Программа кодирования : VirtualDubMod 1.5.10.3 | www.virtualdub-fr.org || (build 2550/release)
    Библиотека кодирования : VirtualDubMod build 2550/release

    Видео
    Идентификатор : 0
    Формат : MPEG-4 Visual
    Профиль формата : Advanced Simple@L5
    Параметр BVOP формата : 2
    Параметр QPel формата : Нет
    Параметр GMC формата : Без точки перехода
    Параметр матрицы формата : Default (H.263)
    Идентификатор кодека : XVID
    Идентификатор кодека/Подсказка : XviD
    Продолжительность : 1 ч. 37 м.
    Битрейт : 926 Кбит/сек
    Ширина : 640 пикс.
    Высота : 272 пикс.
    Соотношение сторон : 2,35:1
    Частота кадров : 24,000 кадр/сек
    Цветовое пространство : YUV
    Подвыборка цветности : 4:2:0
    Битовая глубина : 8 бит
    Тип развёртки : Прогрессивная
    Метод сжатия : С потерями
    Бит/(Пиксели*Кадры) : 0.222
    Размер потока : 649 Мбайт (87%)
    Библиотека кодирования : XviD 1.2.1 (UTC 2008-12-04)

    Аудио
    Идентификатор : 1
    Формат : MPEG Audio
    Версия формата : Version 1
    Профиль формата : Layer 3
    Идентификатор кодека : 55
    Идентификатор кодека/Подсказка : MP3
    Продолжительность : 1 ч. 37 м.
    Вид битрейта : Постоянный
    Битрейт : 128 Кбит/сек
    Каналы : 2 канала
    Частота : 48,0 КГц
    Метод сжатия : С потерями
    Размер потока : 89,7 Мбайт (12%)
    Выравнивание : Соединение по промежуткам
    Продолжительность промежутка : 42 мс. (1,00 видеокадр)
    Время предзагрузки промежутка : 504 ms
    Библиотека кодирования : LAME3.99r
    Залил: AleksSin
    Размер: 744.89 MB (781074432 Bytes)

    загрузка...
    Рейтинг →
     (голосов: 1, оценка 3/5, голосовать можно 1 раз )

    Другие торренты по теме:

  • Жетоны ярости / Badges of Fury / Bu Er Shen Tan (2013) DVDScr от BTT-TEAM | L1 | Proper
  • Жетоны ярости / Badges of Fury / Bu Er Shen Tan (2013) HDRip | L1
  • Жетоны ярости / Badges of Fury / Bu Er Shen Tan (2013) BDRip-AVC от HELLYWOOD | L1
  • Жетоны ярости / Badges of Fury / Bu Er Shen Tan (2013) BDRip-AVC от leonardo 59 Scarabey | L1
  • Жетоны ярости / Badges of Fury / Bu Er Shen Tan (2013) BDRip 720p от leonardo 59 Scarabey | L1


    • Комментарии (0):

      Информация

      Информация

        Посетители, находящиеся в группе Гости, не могут оставлять комментарии в данной новости.

        ↓ Меню



        ↓ Опрос

        А Вы добавили сайт в закладки?
        Да
        Не


        Top 10 за месяц (Фильмы)