.
Авторизация | Регистрация
Хочешь лучшие торренты? Добавь свой email!
Добавить
» » Глаза аллигатора / Alligator Eyes (1990) DVDRip от NovaLan скачать торрент бесплатно




    Глаза аллигатора / Alligator Eyes (1990) DVDRip от NovaLan скачать торрент бесплатно

    Опубликовал: Админ | Дата: 27-02-2015, 11:09 | Просмотров: 352




    Страна: США
    Производство: Laughing Man Partnership
    Жанр: Триллер, мелодрама
    Год выпуска: 1990

    Продолжительность: 01:36:23


    Перевод: Профессиональный многоголосый

    Оригинальная аудиодорожка: Нет

    Cубтитры: Нет


    Режиссер: Джон Фельдман


    В ролях: Аннабелль Ларсен, Роджер Каблер, Мэри МакЛэйн, Аллен МакКалло, Джон МакКей, Джон Патрик Райс, Алан Сполдинг




    Описание: Трое молодых людей решают уехать подальше от города, и подальше от увеселительных заведений. Они едут на юг. По дороге им встречается красивая, таинственная молодая женщина, которая заинтересовывает их своим странным и тревожным прошлым. Все трое очарованы ей, но ей можно доверять?

    Исходник: DVD5 R5

    Тип релиза: DVDRip

    Контейнер: AVI


    Видео: 704x528 (1.33:1), 23.976 fps, XviD ~1788 kbps avg, 0.20 bit/pixel
    Аудио: 48 kHz, AC3 Dolby Digital, 2/0 (L,R) ch, ~224.00 kbps avg



    MediaInfo
    Общее
    Полное имя : D:1АААГлаза аллигатора.avi
    Формат : AVI
    Формат/Информация : Audio Video Interleave
    Размер файла : 1,36 Гбайт
    Продолжительность : 1 ч. 36 м.
    Общий поток : 2022 Кбит/сек
    Программа кодирования : VirtualDubMod 1.5.10.3 | www.virtualdub-fr.org || (build 2550/release)
    Библиотека кодирования : VirtualDubMod build 2550/release

    Видео
    Идентификатор : 0
    Формат : MPEG-4 Visual
    Профиль формата : Advanced Simple@L5
    Параметр BVOP формата : 2
    Параметр QPel формата : Нет
    Параметр GMC формата : Без точки перехода
    Параметр матрицы формата : Default (MPEG)
    Режим смешивания : Сжатый битовый поток
    Идентификатор кодека : XVID
    Идентификатор кодека/Подсказка : XviD
    Продолжительность : 1 ч. 36 м.
    Битрейт : 1789 Кбит/сек
    Ширина : 704 пикселя
    Высота : 528 пикселей
    Соотношение сторон : 4:3
    Частота кадров : 23,976 кадра/сек
    Цветовое пространство : YUV
    Субдискретизация насыщенности : 4:2:0
    Битовая глубина : 8 бит
    Тип развёртки : Прогрессивная
    Метод сжатия : С потерями
    Бит/(Пиксели*Кадры) : 0.201
    Размер потока : 1,20 Гбайт (88%)
    Библиотека кодирования : XviD 1.2.1 (UTC 2008-12-04)

    Аудио
    Идентификатор : 1
    Формат : AC-3
    Формат/Информация : Audio Coding 3
    Расширение режима : CM (complete main)
    Параметр Endianness формата : Big
    Идентификатор кодека : 2000
    Продолжительность : 1 ч. 36 м.
    Вид битрейта : Постоянный
    Битрейт : 224 Кбит/сек
    Каналы : 2 канала
    Расположение каналов : Front: L R
    Частота : 48,0 КГц
    Битовая глубина : 16 бит
    Метод сжатия : С потерями
    Размер потока : 154 Мбайт (11%)
    Выравнивание : Разделение по промежуткам
    Продолжительность промежутка : 42 мс. (1,00 видеокадр)
    Время предзагрузки промежутка : 500 мс.







    Скриншоты




    Релиз группа:

    Автор рипа:
    Залил: YArl
    Размер: 1.36 GB (1461823488 Bytes)
    загрузка...
    Рейтинг →
     (голосов: 1, оценка 3/5, голосовать можно 1 раз )

    Другие торренты по теме:

  • Огненные глаза / Глаза огня / Eyes of Fire (1983) DVD5 скачать бесплатно через торрент
  • Берегите глаза! / Осторожно – глаза! / Attention les yeux! / Lets Make a Dirty Movie (1976) SATRip
  • Огненные глаза / Eyes of Fire (1983) DVDRip | L1
  • У холмов есть глаза / The Hills Have Eyes (1977) BDRip
  • Глаза радуги / Rainbow Eyes / Ga-myeon (2007) DVDRip | L2
  • OST - У холмов есть глаза / The Hills Have Eyes (2006)
  • Бой до победы / Глаза дракона / Fight to Win / Eyes of the Dragon (1987) DVDRip | А
  • Народный Отпор - Смотри Мне В Глаза... (2010) МР3


    • Комментарии (0):

      Информация

      Информация

        Посетители, находящиеся в группе Гости, не могут оставлять комментарии в данной новости.

        ↓ Меню



        ↓ Опрос

        А Вы добавили сайт в закладки?
        Да
        Не


        Top 10 за месяц (Фильмы)