.
Авторизация | Регистрация
Хочешь лучшие торренты? Добавь свой email!
Добавить
» » Багровые реки / Les rivires pourpres (2000) DVD5 | P скачать торрент бесплатно




    Багровые реки / Les rivires pourpres (2000) DVD5 | P скачать торрент бесплатно

    Опубликовал: Админ | Дата: 27-02-2015, 11:09 | Просмотров: 348



    Информация о фильме
    Название: Багровые реки
    Оригинальное название: Les rivi?res pourpres
    Год выхода: 2000
    Жанр: триллер, криминал, детектив
    Режиссер: Матьё Кассовиц
    В ролях: Жан Рено, Венсан Кассель, Надя Фарес, Доминик Санда, Карим Белхадра, Жан-Пьер Кассель, Дидье Фламан, Франсуа Леванталь, Франсин Берже, Филипп Наон

    О фильме:
    В престижном колледже в Альпах совершено зверское убийство, которое расследует опытный комиссар полиции Пьер Ньеманс. Тем временем в другом местечке происходит еще одно, весьма странное преступление — кто-то раскапывает и оскверняет могилу 10-летней девочки.

    Это дело ведет молодой детектив Макс Керкерьян. Кажется, между данными событиями нет связи. Но она существует! И когда оба полицейских обнаруживают ее, доселе виденные ими заурядные злодеяния постепенно меркнут по сравнению с тем сердцем тьмы, куда приведут их поиски правды. Смертельно опасной правды…




    Страна: Франция
    Студия: Canal fr, Gaumont, L?gende Entreprises, TF1 Films Productions
    Продолжительность: 106 мин. / 01:46
    Перевод: профессиональный (многоголосый, закадровый)

    Файл
    Кодек: MPEG2
    Качество: DVD5
    Видео: PAL 16:9 (720x576) VBR 4747 Kbps, 25.000 fps
    Звук: Dolby AC3, 6 ch, 48.0 KHz, 448 Kbps
    Субтитры: русские, английские, хинди

    MediaInfo
    General
    Complete name : D:BAGROVYE REKIVIDEO_TSVTS_01_1.VOB
    Format : MPEG-PS
    File size : 1 024 MiB
    Duration : 23mn 2s
    Overall bit rate mode : Variable
    Overall bit rate : 6 215 Kbps

    Video
    ID : 224 (0xE0)
    Format : MPEG Video
    Format version : Version 2
    Format profile : Main@Main
    Format settings, BVOP : No
    Format settings, Matrix : Custom
    Format settings, GOP : Variable
    Duration : 23mn 2s
    Bit rate mode : Variable
    Bit rate : 4 747 Kbps
    Maximum bit rate : 9 800 Kbps
    Width : 720 pixels
    Height : 576 pixels
    Display aspect ratio : 16:9
    Frame rate : 25.000 fps
    Standard : PAL
    Color space : YUV
    Chroma subsampling : 4:2:0
    Bit depth : 8 bits
    Scan type : Progressive
    Scan order : Top Field First
    Compression mode : Lossy
    Bits/(Pixel*Frame) : 0.458
    Time code of first frame : 00:00:00:00
    Time code source : Group of pictures t_head
    Stream size : 782 MiB (76%)

    Audio #1
    ID : 189 (0xBD)-128 (0x80)
    Format : AC-3
    Format/Info : Audio Coding 3
    Mode extension : CM (complete main)
    Format settings, Endianness : Big
    Muxing mode : DVD-Video
    Duration : 23mn 1s
    Bit rate mode : Constant
    Bit rate : 448 Kbps
    Channel count : 6 channels
    Channel positions : Front: L C R, Side: L R, LFE
    Sampling rate : 48.0 KHz
    Bit depth : 16 bits
    Compression mode : Lossy
    Stream size : 73.8 MiB (7%)

    Audio #2
    ID : 189 (0xBD)-129 (0x81)
    Format : AC-3
    Format/Info : Audio Coding 3
    Mode extension : CM (complete main)
    Format settings, Endianness : Big
    Muxing mode : DVD-Video
    Duration : 23mn 1s
    Bit rate mode : Constant
    Bit rate : 448 Kbps
    Channel count : 6 channels
    Channel positions : Front: L C R, Side: L R, LFE
    Sampling rate : 48.0 KHz
    Bit depth : 16 bits
    Compression mode : Lossy
    Stream size : 73.8 MiB (7%)

    Audio #3
    ID : 189 (0xBD)-130 (0x82)
    Format : AC-3
    Format/Info : Audio Coding 3
    Mode extension : CM (complete main)
    Format settings, Endianness : Big
    Muxing mode : DVD-Video
    Duration : 23mn 1s
    Bit rate mode : Constant
    Bit rate : 448 Kbps
    Channel count : 6 channels
    Channel positions : Front: L C R, Side: L R, LFE
    Sampling rate : 48.0 KHz
    Bit depth : 16 bits
    Compression mode : Lossy
    Stream size : 73.8 MiB (7%)

    Text #1
    ID : 189 (0xBD)-32 (0x20)
    Format : RLE
    Format/Info : Run-length encoding
    Muxing mode : DVD-Video

    Text #2
    ID : 189 (0xBD)-33 (0x21)
    Format : RLE
    Format/Info : Run-length encoding
    Muxing mode : DVD-Video

    Text #3
    ID : 189 (0xBD)-34 (0x22)
    Format : RLE
    Format/Info : Run-length encoding
    Muxing mode : DVD-Video

    Menu

    Скриншоты

    Залил: carisha
    Размер: 4.31 GB (4631320576 Bytes)
    загрузка...
    Рейтинг →
     (голосов: 1, оценка 5/5, голосовать можно 1 раз )

    Другие торренты по теме:

  • Багровые реки 1, 2 / Les rivires pourpres 1, 2 (2000, 2004) HDRip-AVC | Дилогия | D
  • Багровые реки 2: Ангелы апокалипсиса / Les rivires pourpres II - Les anges de lapocalypse (2004) DVD5 | D
  • Багровые реки: Дилогия / Les Rivieres pourpres: Dilogy (2000-2004) BDRip 720p


    • Комментарии (0):

      Информация

      Информация

        Посетители, находящиеся в группе Гости, не могут оставлять комментарии в данной новости.

        ↓ Меню



        ↓ Опрос

        А Вы добавили сайт в закладки?
        Да
        Не


        Top 10 за месяц (Фильмы)