.
Авторизация | Регистрация
Хочешь лучшие торренты? Добавь свой email!
Добавить
» » Дрожь земли 4: Легенда начинается / Tremors 4: The Legend Begins (2004) BDRemux 1080p от MediaClub | P, A скачать торрент бесплатно




    Дрожь земли 4: Легенда начинается / Tremors 4: The Legend Begins (2004) BDRemux 1080p от MediaClub | P, A скачать торрент бесплатно

    Опубликовал: Админ | Дата: 27-02-2015, 11:09 | Просмотров: 297



    Информация о фильме
    Название: Дрожь земли 4: Легенда начинается
    Оригинальное название: Tremors 4: The Legend Begins
    Год выпуска: 2004
    Жанр: Фантастика, приключения, боевик, комедия, вестерн
    Режиссер: Сид Уилсон
    В ролях: Майкл Гросс, Сара Ботсфорд, Билли Драго, Брент Роум, Аугуст Шелленберг, Дж.И. Фриман, Ло Минг, Лидия Лук, Сэм Ли

    Описание: После того, как жителей отдаленного городка в штате Невада стал безжалостно истреблять невидимый враг, владелец копей Хайрем Гаммер нанимает лучшего стрелка на Диком Западе по кличке Келли Черная Рука, чтобы тот расправился со зловещими существами, оставляющими уважаемого бизнесмена без прибыли! Надо заметить, что мистер Гаммер является прапрадедом Берта Гаммера - отважного охотника и эксперта по истреблению прожорливых подземных хищников. Так что, как Вы, наверное, уже догадались, кровопролитных схваток с огромными плотоядными червями теперь не избежать!




    Страна: США
    Студия: Stampede Entertainment
    Продолжительность: 01:40:59
    Перевод: Профессиональный многоголосый, авторский одноголосый

    Файл
    Качество: BDRemux 1080p
    Видео: VC-1, 30408 Кбит/с, 1920x1080, 23.976 кадр/с
    Аудио #1: Русский (AC3, 2 ch, 192 Кбит/с) / Профессиональный многоголосый (СТС)
    Аудио #2: Русский (AC3, 6 ch, 448 Кбит/с) / Авторский одноголосый (С. Визгунов)
    Аудио #3: Русский (AC3, 2 ch, 192 Кбит/с) / Авторский одноголосый (А. Дольский)
    Аудио #4: Английский (DTS-HD MA, 6 ch, 4291 Кбит/с)
    Субтитры: Русские, английские


    Скриншоты



    О релизе
    За исходный Blu-Ray спасибо HDClub
    За предоставленный постер огромное спасибо команде: Media-Art-Club

    MI
    Общее
    Уникальный идентификатор : 208973959922694481336234223103050759795 (0x9D36EBB3136646E4960C57549B67BE73)
    Полное имя : D:Mои раздачиDrozhj.zemli-4.2004.BDRemux.(1080p)-MediaClub.mkv
    Формат : Matroska
    Версия формата : Version 4 / Version 2
    Размер файла : 25,1 Гбайт
    Продолжительность : 1 ч. 40 м.
    Режим общего битрейта : Переменный
    Общий поток : 35,5 Мбит/сек
    Название фильма : -=MediaClub-kaspr=-
    Дата кодирования : UTC 2013-08-28 15:48:09
    Программа кодирования : mkvmerge v6.3.0 (;You can;t stop me!;) built on Jul 19 2013 16:27:38
    Библиотека кодирования : libebml v1.3.0 libmatroska v1.4.1

    Видео
    Идентификатор : 1
    Формат : VC-1
    Профиль формата : Advanced@L3
    Идентификатор кодека : V_MS/VFW/FOURCC / WVC1
    Идентификатор кодека/Подсказка : Microsoft
    Продолжительность : 1 ч. 40 м.
    Ширина : 1920 пикселей
    Высота : 1080 пикселей
    Соотношение сторон : 16:9
    Режим частоты кадров : Постоянный
    Частота кадров : 23,976 кадра/сек
    Цветовое пространство : YUV
    Субдискретизация насыщенности : 4:2:0
    Битовая глубина : 8 бит
    Тип развёртки : Прогрессивная
    Метод сжатия : С потерями
    Заголовок : -=MediaClub-kaspr=-
    Default : Да
    Forced : Да

    Аудио #1
    Идентификатор : 2
    Формат : AC-3
    Формат/Информация : Audio Coding 3
    Расширение режима : CM (complete main)
    Параметр Endianness формата : Big
    Идентификатор кодека : A_AC3
    Продолжительность : 1 ч. 40 м.
    Вид битрейта : Постоянный
    Битрейт : 192 Кбит/сек
    Каналы : 2 канала
    Расположение каналов : Front: L R
    Частота : 48,0 КГц
    Битовая глубина : 16 бит
    Метод сжатия : С потерями
    Задержка видео : -42 мс.
    Размер потока : 139 Мбайт (1%)
    Заголовок : СТС
    Язык : Russian
    Default : Да
    Forced : Да

    Аудио #2
    Идентификатор : 3
    Формат : AC-3
    Формат/Информация : Audio Coding 3
    Расширение режима : CM (complete main)
    Параметр Endianness формата : Big
    Идентификатор кодека : A_AC3
    Продолжительность : 1 ч. 40 м.
    Вид битрейта : Постоянный
    Битрейт : 448 Кбит/сек
    Каналы : 6 каналов
    Расположение каналов : Front: L C R, Side: L R, LFE
    Частота : 48,0 КГц
    Битовая глубина : 16 бит
    Метод сжатия : С потерями
    Задержка видео : -42 мс.
    Размер потока : 324 Мбайт (1%)
    Заголовок : Визгунов
    Язык : Russian
    Default : Нет
    Forced : Нет

    Аудио #3
    Идентификатор : 4
    Формат : AC-3
    Формат/Информация : Audio Coding 3
    Расширение режима : CM (complete main)
    Параметр Endianness формата : Big
    Идентификатор кодека : A_AC3
    Продолжительность : 1 ч. 40 м.
    Вид битрейта : Постоянный
    Битрейт : 192 Кбит/сек
    Каналы : 2 канала
    Расположение каналов : Front: L R
    Частота : 48,0 КГц
    Битовая глубина : 16 бит
    Метод сжатия : С потерями
    Задержка видео : -42 мс.
    Размер потока : 139 Мбайт (1%)
    Заголовок : Дольский
    Язык : Russian
    Default : Нет
    Forced : Нет

    Аудио #4
    Идентификатор : 5
    Формат : DTS
    Формат/Информация : Digital Theater Systems
    Профиль формата : MA / Core
    Режим : 16
    Параметр Endianness формата : Big
    Идентификатор кодека : A_DTS
    Продолжительность : 1 ч. 40 м.
    Вид битрейта : Переменный
    Битрейт : Неизвестно / 1509 Кбит/сек
    Каналы : 6 каналов
    Расположение каналов : Front: L C R, Side: L R, LFE
    Частота : 48,0 КГц
    Битовая глубина : 24 бит
    Метод сжатия : Без потерь / Lossy
    Задержка видео : -42 мс.
    Заголовок : Оригинал
    Язык : English
    Default : Нет
    Forced : Нет

    Текст #1
    Идентификатор : 6
    Формат : UTF-8
    Идентификатор кодека : S_TEXT/UTF8
    Идентификатор кодека/Информация : UTF-8 Plain Text
    Язык : Russian
    Default : Нет
    Forced : Нет

    Текст #2
    Идентификатор : 7
    Формат : UTF-8
    Идентификатор кодека : S_TEXT/UTF8
    Идентификатор кодека/Информация : UTF-8 Plain Text
    Язык : English
    Default : Нет
    Forced : Нет

    Меню
    00:00:00.000 : en:Chapter 01
    00:02:58.178 : en:Chapter 02
    00:06:56.165 : en:Chapter 03
    00:15:18.375 : en:Chapter 04
    00:20:49.081 : en:Chapter 05
    00:27:55.090 : en:Chapter 06
    00:33:18.204 : en:Chapter 07
    00:37:07.642 : en:Chapter 08
    00:42:50.067 : en:Chapter 09
    00:47:30.472 : en:Chapter 10
    00:51:53.568 : en:Chapter 11
    00:58:33.760 : en:Chapter 12
    01:05:15.036 : en:Chapter 13
    01:10:24.720 : en:Chapter 14
    01:14:52.112 : en:Chapter 15
    01:19:58.752 : en:Chapter 16
    01:24:42.494 : en:Chapter 17
    01:29:23.149 : en:Chapter 18
    01:34:44.470 : en:Chapter 19
    01:37:58.330 : en:Chapter 20

    Релиз:
    Залил: kaspr
    Размер: 25.07 GB (26917792688 Bytes)
    загрузка...
    Рейтинг →
     (голосов: 1, оценка 3/5, голосовать можно 1 раз )

    Другие торренты по теме:

  • Дрожь земли / Tremors (1990) BDRip-AVC
  • Дрожь земли 2: Повторный удар / Tremors II: Aftershocks (1996) BDRip 1080p от Youtracker
  • Дрожь земли 4: Легенда начинается / Tremors 4: The Legend Begins (2004) BDRip 720p от MediaClub | P, A
  • Дрожь земли 3 / Tremors 3: Back to Perfection (2001) BDRip 1080p от Youtracker
  • Дрожь земли 4: Легенда начинается / Tremors 4: The Legend Begins (2004) BDRip 1080p от Youtracker
  • Дрожь земли 4: Легенда начинается / Tremors 4: The Legend Begins (2004) BDRip от MediaClub | P, A
  • Дрожь земли 2: Повторный удар / Tremors II: Aftershocks (1996) BDRip от HQCLUB скачать через торрент бесплатно
  • Дрожь земли 3 / Tremors 3: Back to Perfection (2001) BDRip от HQCLUB скачать через торрент бесплатно


    • Комментарии (0):

      Информация

      Информация

        Посетители, находящиеся в группе Гости, не могут оставлять комментарии в данной новости.

        ↓ Меню



        ↓ Опрос

        А Вы добавили сайт в закладки?
        Да
        Не


        Top 10 за месяц (Фильмы)