.
Авторизация | Регистрация
Хочешь лучшие торренты? Добавь свой email!
Добавить
» » Под куполом / Under the Dome (2013) WEB-DLRip l BaibaKo скачать торрент бесплатно




    Под куполом / Under the Dome (2013) WEB-DLRip l BaibaKo скачать торрент бесплатно

    Опубликовал: Админ | Дата: 27-02-2015, 11:09 | Просмотров: 317

    Под куполом / Under the Dome Год выпуска: 2013
    Страна: США | CBS
    Жанр: фантастика, ужасы
    Продолжительность: ~ 42 минуты
    Перевод: Профессиональный (многоголосый, закадровый) - BaibaKo
    Субтитры: Нет
    Режиссёр: Джек БендерВ ролях: Майк Фогель, Колин Форд, Аиша Хиндс, Александр Кох, Рашель Лефевр, Натали Мартинез, Дин Норрис, Джолин Парди, Бриттани Робертсон, Николас Стронг и др.Описание: Обычным погожим осенним днем город Честерс Милл, штат Мэн, оказывается внезапно отрезанным от остального мира невидимым барьером. В купол врезается самолет. Загадочное силовое поле не щадит ни постройки, ни автомобили, ни животных, ни людей. Выехавшие в соседний город по делам не могут вернуться к своим близким. Никто не понимает, что это за барьер, откуда он взялся и исчезнет ли.
    Дейл Барбара, ветеран войны в Ираке, а ныне повар, теперь в одной команде с несколькими отважными жителями — Джулией Шамвей, владелицей городской газеты, помощником врача, женщиной и тремя храбрыми детьми. Против них выступает Большой Джим Ренни — местный политический деятель, который для удержания власти не остановится ни перед чем, даже перед убийством, а также его сын со своим личным скелетом в шкафу. Но главный их противник — сам Купол…Качество: WEB-DLRip
    Формат: AVI
    Видео кодек: XviD
    Аудио кодек: MP3
    Видео: 720x400 (16:9), 23.976 fps, ~1500 kbps, ~0.22 bit/pixel
    Аудио Rus: 48 kHz, 2 ch, ~128 kbps |BaibaKo|
    Аудио Eng: 48 kHz, 2 ch, ~128 kbps |Original|
    Озвучка:Юлия Котурбаш, Светлана Доманова, Артемий Мирон и Алексей Кузнецов
    Перевод:Янина Галицкая
    Постер:tvblog
    Рип:LegendKiev
    Список серий

    Пилот / Pilot
    Пожар / The Fire
    Преследование / Manhunt
    Вспышка / Outbreak
    Удар по своим /
    Бесконечная жажда /
    Несовершенные круги /
    Кровь не водица /
    Четвёртая рука /

    Скриншоты





    MediaInfo

    Общее
    Формат : AVI
    Формат/Информация : Audio Video Interleave
    Размер файла : 551 Мбайт
    Продолжительность : 42 м.
    Общий поток : 1799 Кбит/сек
    Программа кодирования : VirtualDubMod 1.5.10.2 (build 2540/release)
    Библиотека кодирования : VirtualDubMod build 2540/release

    Видео
    Идентификатор : 0
    Формат : MPEG-4 Visual
    Профиль формата : Advanced Simple@L5
    Параметр BVOP формата : 1
    Параметр QPel формата : Нет
    Параметр GMC формата : Без точки перехода
    Параметр матрицы формата : Выборочная
    Идентификатор кодека : XVID
    Идентификатор кодека/Подсказка : XviD
    Продолжительность : 42 м.
    Битрейт : 1529 Кбит/сек
    Ширина : 720 пикселей
    Высота : 400 пикселей
    Соотношение сторон : 16:9
    Частота кадров : 23,976 кадра/сек
    Цветовое пространство : YUV
    Субдискретизация насыщенности : 4:2:0
    Битовая глубина : 8 бит
    Тип развёртки : Прогрессивная
    Метод сжатия : С потерями
    Бит/(Пиксели*Кадры) : 0.221
    Размер потока : 468 Мбайт (85%)
    Библиотека кодирования : XviD 73

    Аудио #1
    Идентификатор : 1
    Формат : MPEG Audio
    Версия формата : Version 1
    Профиль формата : Layer 3
    Режим : Joint stereo
    Расширение режима : MS Stereo
    Идентификатор кодека : 55
    Идентификатор кодека/Подсказка : MP3
    Продолжительность : 42 м.
    Вид битрейта : Постоянный
    Битрейт : 128 Кбит/сек
    Каналы : 2 канала
    Частота : 48,0 КГц
    Метод сжатия : С потерями
    Размер потока : 39,2 Мбайт (7%)
    Выравнивание : Соединение по промежуткам
    Продолжительность промежутка : 42 мс. (1,00 видеокадр)
    Время предзагрузки промежутка : 504 мс.
    Библиотека кодирования : LAME3.99r
    Настройки программы : -m j -V 4 -q 2 -lowpass 17 -b 128

    Аудио #2
    Идентификатор : 2
    Формат : MPEG Audio
    Версия формата : Version 1
    Профиль формата : Layer 3
    Режим : Joint stereo
    Расширение режима : MS Stereo
    Идентификатор кодека : 55
    Идентификатор кодека/Подсказка : MP3
    Продолжительность : 42 м.
    Вид битрейта : Постоянный
    Битрейт : 128 Кбит/сек
    Каналы : 2 канала
    Частота : 48,0 КГц
    Метод сжатия : С потерями
    Размер потока : 39,2 Мбайт (7%)
    Выравнивание : Соединение по промежуткам
    Продолжительность промежутка : 42 мс. (1,00 видеокадр)
    Время предзагрузки промежутка : 504 мс.
    Библиотека кодирования : LAME3.99r
    Настройки программы : -m j -V 4 -q 2 -lowpass 17 -b 128


    Внимание! Раздача ведётся путём добавления новых серий.

    Внимание! Раздача ведётся путём добавления новых серий; при каждом добавлении создётся новый торрент. Чтобы начать докачку новой серии, пользователям необходимо сделать следующее:

    Остановить скачивание.
    Удалить старый торрент у себя из клиента (старые серии удалять не надо).
    Скачать новый торрент и запустить его у себя в клиенте вместо старого, при этом указать клиенту путь в старую папку куда и должно происходить скачивание новых серий.
    Ваш клиент при этом должен произвести хеширование (проверку) старой папки (если не производит сам - помогите ему сделать это), и будет докачивать только те серии которых у вас ещё нет. Старые серии при этом не удаляются, а продолжают раздаваться!
    Eсли вы уже удалили старые серии, то предотвратить повторную закачку старых серий можно, отжав галочку в соответсвующих местах при запуске нового торрента. По возможности, желательно не удалять старые серии как можно дольше чтобы релизёр не столько продолжал раздавать старые серии, а смог сконцентрироваться на новых.

    Размер: 5.60 GB (6016923648 Bytes)
    загрузка...
    Рейтинг →
     (голосов: 1, оценка 3/5, голосовать можно 1 раз )

    Другие торренты по теме:

  • Скуби-Ду! Под куполом цирка / Big Top Scooby-Doo! (2012) DVDRip | L1
  • Безумный Макс 3: Под куполом грома / Mad Max Beyond Thunderdome (1985) HDTV 1080p
  • Под куполом / Under the Dome (2013) WEB-DL 720р | Кубик в кубе
  • Под куполом / Under the Dome (2013) WEB-DLRip-AVC | Baibako
  • Под куполом / Under the Dome (2013) WEB-DLRip | Baibako
  • Под куполом / Under the Dome (2013) WEB-DLRip-AVC 1080p l AlexFilm
  • Под куполом / Under the Dome (2013) WEB-DLRip от Scarabey | LostFilm
  • Под куполом / Under the Dome (2013) WEB-DL 720p | Specter


    • Комментарии (0):

      Информация

      Информация

        Посетители, находящиеся в группе Гости, не могут оставлять комментарии в данной новости.

        ↓ Меню



        ↓ Опрос

        А Вы добавили сайт в закладки?
        Да
        Не


        Top 10 за месяц (Фильмы)