.
Авторизация | Регистрация
Хочешь лучшие торренты? Добавь свой email!
Добавить
» » Под куполом / Under the Dome (2013) WEB-DL 1080p l BaibaKo скачать торрент бесплатно




    Под куполом / Under the Dome (2013) WEB-DL 1080p l BaibaKo скачать торрент бесплатно

    Опубликовал: Админ | Дата: 27-02-2015, 11:09 | Просмотров: 448

    Под куполом / Under the DomeГод выпуска:2013
    Страна:США
    Жанр:ужасы, фантастика
    Продолжительность:~00:45:00Перевод:Профессиональный (многоголосый закадровый) | (BaibaKo)Режиссер:Джек Бендер / Jack Bender
    В ролях:
    Майк Фогель / Mike Vogel, Колин Форд / Colin Ford, Дин Норрис / Dean Norris, Бриттани Робертсон / Brittany Robertson, Натали Мартинез / Natalie MartinezОписание:
    Обычным, пригожим осенним днем, город Честерс Миллз, штат Мэн, был внезапно отрезан от остального мира невидимым силовым барьером. Самолеты врезаются в купол и падают, пылая, с небес; садовнику отрезает силовым полем руку; люди, выехавшие в соседний город по делам, не могут вернуться к своим близким; автомобили взрываются от столкновения с куполом. Никто не понимает, что это за барьер, откуда он взялся и исчезнет ли он.
    Качество:WEB-DL 1080p
    Формат:MKV
    Видео кодек:H.264
    Аудио кодек:AC3
    Видео:1920x1080, ~4833 kbps, 23,976 fps, 0.097 bit/pixel
    Audio:48 kHz, AC3 Dolby Digital, 3/2 (L,C,R,l,r) LFE ch, ~384.00 kbps avg | (BaibaKo)
    Audio:48 kHz, AC3 Dolby Digital, 3/2 (L,C,R,l,r) LFE ch, ~384.00 kbps avg

    Релиз:
    Озвучка:Юлия Котурбаш, Светлана Доманова, Артемий Мирон и Алексей Кузнецов
    Перевод:Янина Галицкая

    MI

    code
    General
    Unique ID : 184379286000889189992435603627456104840 (0x8AB628A756B1668AAF1862A48E048988)
    Complete name : D:FilmiUnder The Dome (????? 1) 1080p (BaibaKo)Under.the.Dome.s01e01.HD1080p.WEB-DL.Rus.Eng.BaibaKo.tv.mkv
    Format : Matroska
    Format version : Version 4 / Version 2
    File size : 1.71 GiB
    Duration : 42mn 47s
    Overall bit rate : 5 715 Kbps
    Movie name : BaibaKo.tv presents - ??? ??????? 1x01 ?????
    Encoded date : UTC 2010-02-22 21:41:31
    Writing application : mkvmerge v5.9.0 (;On The Loose;) built on Dec 9 2012 15:37:01
    Writing library : libebml v1.3.0 libmatroska v1.4.0
    Video #1
    ID : 1
    Format : AVC
    Format/Info : Advanced Video Codec
    Format profile : High@L4.0
    Format settings, CABAC : Yes
    Format settings, ReFrames : 4 frames
    Codec ID : V_MPEG4/ISO/AVC
    Duration : 42mn 47s
    Bit rate : 4 833 Kbps
    Width : 1 920 pixels
    Height : 1 080 pixels
    Display aspect ratio : 16:9
    Frame rate mode : Constant
    Frame rate : 23.976 fps
    Color space : YUV
    Chroma subsampling : 4:2:0
    Bit depth : 8 bits
    Scan type : Progressive
    Bits/(Pixel*Frame) : 0.097
    Stream size : 1.44 GiB (85%)
    Language : English
    Default : Yes
    Forced : No
    Color primaries : BT.709
    Transfer characteristics : BT.709
    Matrix coefficients : BT.709
    Audio #2
    ID : 2
    Format : AC-3
    Format/Info : Audio Coding 3
    Mode extension : CM (complete main)
    Format settings, Endianness : Big
    Codec ID : A_AC3
    Duration : 42mn 47s
    Bit rate mode : Constant
    Bit rate : 384 Kbps
    Channel(s) : 6 channels
    Channel positions : Front: L C R, Side: L R, LFE
    Sampling rate : 48.0 KHz
    Bit depth : 16 bits
    Compression mode : Lossy
    Stream size : 118 MiB (7%)
    Title : Rus BaibaKo.tv DD5.1
    Language : Russian
    Default : Yes
    Forced : No
    Audio #3
    ID : 3
    Format : AC-3
    Format/Info : Audio Coding 3
    Mode extension : CM (complete main)
    Format settings, Endianness : Big
    Codec ID : A_AC3
    Duration : 42mn 47s
    Bit rate mode : Constant
    Bit rate : 384 Kbps
    Channel(s) : 6 channels
    Channel positions : Front: L C R, Side: L R, LFE
    Sampling rate : 48.0 KHz
    Bit depth : 16 bits
    Compression mode : Lossy
    Stream size : 118 MiB (7%)
    Title : Eng DD5.1
    Language : English
    Default : No
    Forced : No

    /code

    Скриншоты



    Внимание! Раздача ведётся путём добавления новых серий!

    Внимание! Раздача ведётся путём добавления новых серий; при каждом добавлении создётся новый торрент. Чтобы начать докачку новой серии, пользователям необходимо сделать следующее: (1) остановить скачивание, (2) удалить старый торрент у себя из клиента (старые серии удалять не надо), (3) скачать новый торрент и запустить его у себя в клиенте вместо старого, при этом указать клиенту путь в старую папку куда и должно происходить скачивание новых серий.

    Ваш клиент при этом должен произвести хеширование (проверку) старой папки (если не производит сам - помогите ему сделать это), и будет докачивать только те серии которых у вас ещё нет. Старые серии при этом не удаляются, а продолжают раздаваться!

    Eсли вы уже удалили старые серии, то предотвратить повторную закачку старых серий можно, отжав галочку в соответсвующих местах при запуске нового торрента.

    Список серий

    01 - Пилот / Pilot
    02 - Пожар / Into the Fire
    03 - Преследование / Manhunt
    04 - Вспышка / Outbreak
    05 - Удар по своим / Blue on Blue
    06 -
    07 -
    08 -
    09 -
    10 -
    11 -
    12 -

    /url
    Размер: 17.10 GB (18360197951 Bytes)
    загрузка...
    Рейтинг →
     (голосов: 1, оценка 5/5, голосовать можно 1 раз )

    Другие торренты по теме:

  • Скуби-Ду! Под куполом цирка / Big Top Scooby-Doo! (2012) DVDRip | L1
  • Безумный Макс 3: Под куполом грома / Mad Max Beyond Thunderdome (1985) HDTV 1080p
  • Под куполом / Under the Dome (2013) WEB-DL 720р | Кубик в кубе
  • Под куполом / Under the Dome (2013) WEB-DLRip-AVC | Baibako
  • Под куполом / Under the Dome (2013) WEB-DLRip | Baibako
  • Под куполом / Under the Dome (2013) WEB-DLRip-AVC 1080p l AlexFilm
  • Под куполом / Under the Dome (2013) WEB-DLRip от Scarabey | LostFilm
  • Под куполом / Under the Dome (2013) WEB-DL 720p | Specter


    • Комментарии (0):

      Информация

      Информация

        Посетители, находящиеся в группе Гости, не могут оставлять комментарии в данной новости.

        ↓ Меню



        ↓ Опрос

        А Вы добавили сайт в закладки?
        Да
        Не


        Top 10 за месяц (Фильмы)