.
Авторизация | Регистрация
Хочешь лучшие торренты? Добавь свой email!
Добавить
» » Соблазнитель 2 / Kokowaah 2 (2013) HDRip от BitTracker | HamsterStudio скачать торрент бесплатно




    Соблазнитель 2 / Kokowaah 2 (2013) HDRip от BitTracker | HamsterStudio скачать торрент бесплатно

    Опубликовал: Админ | Дата: 27-02-2015, 11:09 | Просмотров: 329



    Информация о фильме
    Название: Соблазнитель 2
    Оригинальное название: Kokowaah 2
    Год выхода: 2013
    Жанр: комедия, семейный
    Режиссер: Тиль Швайгер / Til Schweiger, Торстен Кюнстлер / Torsten Kunstler
    В ролях: Тиль Швайгер, Эмма Швайгер, Самуэль Финци, Жасмин Герат, Маурицио Магно, Маттиас Швайгхефер, Михаэль Островский, Яна Рейнерманн, Гедеон Буркхард, Юлия Йенч

    О фильме:
    Генри — в прошлом известный ловелас. Однако пришло время забыть о прежних привычках и стать прилежным семьянином. Дети, бывший муж Катарины, Тристан со своей привлекательной подружкой, молодая няня, истеричный директор студии — все они превращают жизнь Генри в череду смешных, порой неловких ситуаций. Как найти время на всех и в то же время побороть инстинкты, ведь вокруг столько соблазнов…




    Страна: Германия
    Студия: A Company, Двадцатый Век Фокс СНГ
    Продолжительность: 02:02:27
    Перевод: Любительский (двухголосый закадровый) HamsterStudio

    Файл
    Кодек: XviD
    Качество: HDRip
    Видео: 640x272 (2.35:1), 23.976 fps, XviD build 50 ~715 kbps avg, 0.17 bit/pixel
    Звук: 48 kHz, MPEG Layer 3, 2 ch, ~128.00 kbps avg
    Субтитры: нет

    Семпл

    MediaInfo

    Общее
    Полное имя : S:ФильмыСоблазнитель 2.HDRip.2013 (AleksSin).avi
    Формат : AVI
    Формат/Информация : Audio Video Interleave
    Размер файла : 747 Мбайт
    Продолжительность : 2 ч. 2 м.
    Общий поток : 853 Кбит/сек
    Программа кодирования : VirtualDubMod 1.5.10.3 | www.virtualdub-fr.org || (build 2550/release)
    Библиотека кодирования : VirtualDubMod build 2550/release

    Видео
    Идентификатор : 0
    Формат : MPEG-4 Visual
    Профиль формата : Advanced Simple@L5
    Параметр BVOP формата : 2
    Параметр QPel формата : Нет
    Параметр GMC формата : Без точки перехода
    Параметр матрицы формата : Default (H.263)
    Идентификатор кодека : XVID
    Идентификатор кодека/Подсказка : XviD
    Продолжительность : 2 ч. 2 м.
    Битрейт : 715 Кбит/сек
    Ширина : 640 пикс.
    Высота : 272 пикс.
    Соотношение сторон : 2,35:1
    Частота кадров : 23,976 кадр/сек
    Цветовое пространство : YUV
    Подвыборка цветности : 4:2:0
    Битовая глубина : 8 бит
    Тип развёртки : Прогрессивная
    Метод сжатия : С потерями
    Бит/(Пиксели*Кадры) : 0.171
    Размер потока : 627 Мбайт (84%)
    Библиотека кодирования : XviD 1.2.1 (UTC 2008-12-04)

    Аудио
    Идентификатор : 1
    Формат : MPEG Audio
    Версия формата : Version 1
    Профиль формата : Layer 3
    Идентификатор кодека : 55
    Идентификатор кодека/Подсказка : MP3
    Продолжительность : 2 ч. 2 м.
    Вид битрейта : Постоянный
    Битрейт : 128 Кбит/сек
    Каналы : 2 канала
    Частота : 48,0 КГц
    Метод сжатия : С потерями
    Размер потока : 112 Мбайт (15%)
    Выравнивание : Соединение по промежуткам
    Продолжительность промежутка : 42 мс. (1,00 видеокадр)
    Время предзагрузки промежутка : 504 ms
    Библиотека кодирования : LAME3.99r
    Залил: AleksSin
    Размер: 746.91 MB (783187968 Bytes)

    загрузка...
    Рейтинг →
     (голосов: 1, оценка 3/5, голосовать можно 1 раз )

    Другие торренты по теме:

  • Соблазнитель 2 / Kokowaah 2 (2013) HDRip | HamsterStudio
  • Соблазнитель 2 / Kokowaah 2 (2013) BDRip-AVC от ExKinoRay | HamsterStudio
  • Соблазнитель 2 / Kokowaah 2 (2013) BDRip-AVC от HELLYWOOD | L2
  • Соблазнитель 2 / Kokowaah 2 (2013) BDRip-AVC от leonardo 59 Scarabey | L2
  • Соблазнитель 2 / Kokowaah 2 (2013) BDRip 720p от leonardo 59 Scarabey | L2
  • Соблазнитель 2 / Kokowaah 2 (2013) НDRip от Scarabey | L2
  • Соблазнитель 2 / Kokowaah 2 (2013) BDRip-AVC от ExKinoRay | Чистый звук
  • Соблазнитель 2 / Kokowaah 2 (2013) HDRip от INTERCINEMA | Чистый звук


    • Комментарии (0):

      Информация

      Информация

        Посетители, находящиеся в группе Гости, не могут оставлять комментарии в данной новости.

        ↓ Меню



        ↓ Опрос

        А Вы добавили сайт в закладки?
        Да
        Не


        Top 10 за месяц (Фильмы)