.
Авторизация | Регистрация
Хочешь лучшие торренты? Добавь свой email!
Добавить
» » Ромео и Джульетта / Romeo and Juliet: A Love Song (2013) DVDRip от Youtracker | Sub | лицензия скачать торрент бесплатно




    Ромео и Джульетта / Romeo and Juliet: A Love Song (2013) DVDRip от Youtracker | Sub | лицензия скачать торрент бесплатно

    Опубликовал: Админ | Дата: 27-02-2015, 11:09 | Просмотров: 365



    Год выпуска: 2013
    Страна: Новая Зеландия
    Киностудии: Factory Fiction

    Жанр: мюзикл, драма
    Продолжительность: 01:36:31

    Перевод: Субтитры
    Оригинальная аудиодорожка: английский
    Субтитры: русский

    Режиссер: Тим ван Даммен / Tim van Dammen

    В ролях: Сара Валентайн, Камерон Родс, Сара Хуболт, Даллас Барнетт, Антон Теннет, Дерия Парлак, Дэн Вейнт, Рики МакЛеннан

    Описание: Каждое поколение переосмысливает историю Ромео и Джульетты по-своему, чтобы она находила отклик в сердцах современного поколения, с её своеобразной эмоциональностью, опытом и взглядами. Эта история для поколения YouTube. Фильм, в котором обыгрываются вкусы современной молодёжи, привыкшей принимать гламур с грязью, комическое с трагическим, красивое с причудливым, а продажное — с возвышенным.




    Исходник: DVD9 R5
    Качество: DVDRip
    Формат: AVI

    Видео: 720x304 (2.35:1), 25.000 fps, XviD MPEG-4 ~942 kbps avg, 0.172 bit/pixel
    Аудио: 48 kHz, Dolby МР3, 2 ch, 128 kbps, английский
    Формат субтитров: SoftSub (srt)
    Примечание: Не стали наши лицензионщики переводить этот фильм и наверное правильно сделали. Это мюзикл и этим всё сказано.

    Раздача от:
    MediaInfo

    Общее
    Полное имя : Romeo.i.Djulyetta.2013.S.DVDRip.745MB_Youtracker_by_avproh.avi
    Формат : AVI
    Формат/Информация : Audio Video Interleave
    Размер файла : 745 Мбайт
    Продолжительность : 1 ч. 36 м.
    Общий поток : 1080 Кбит/сек
    Программа кодирования : VirtualDubModRus 1.5.10.2 (build 2542/release)
    Библиотека кодирования : VirtualDubMod build 2542/release

    Видео
    Идентификатор : 0
    Формат : MPEG-4 Visual
    Профиль формата : Advanced Simple@L5
    Параметр BVOP формата : 1
    Параметр QPel формата : Нет
    Параметр GMC формата : Без точки перехода
    Параметр матрицы формата : Выборочная
    Идентификатор кодека : XVID
    Идентификатор кодека/Подсказка : XviD
    Продолжительность : 1 ч. 36 м.
    Битрейт : 942 Кбит/сек
    Ширина : 720 пикселей
    Высота : 304 пикселя
    Соотношение сторон : 2,35:1
    Частота кадров : 25,000 кадров/сек
    Цветовое пространство : YUV
    Субдискретизация насыщенности : 4:2:0
    Битовая глубина : 8 бит
    Тип развёртки : Прогрессивная
    Метод сжатия : С потерями
    Бит/(Пиксели*Кадры) : 0.172
    Размер потока : 650 Мбайт (87%)
    Библиотека кодирования : XviD 65

    Аудио
    Идентификатор : 1
    Формат : MPEG Audio
    Версия формата : Version 1
    Профиль формата : Layer 3
    Режим : Joint stereo
    Расширение режима : MS Stereo
    Идентификатор кодека : 55
    Идентификатор кодека/Подсказка : MP3
    Продолжительность : 1 ч. 36 м.
    Вид битрейта : Постоянный
    Битрейт : 128 Кбит/сек
    Каналы : 2 канала
    Частота : 48,0 КГц
    Метод сжатия : С потерями
    Размер потока : 88,4 Мбайт (12%)
    Выравнивание : Соединение по промежуткам
    Продолжительность промежутка : 40 мс. (1,00 видеокадр)
    Время предзагрузки промежутка : 504 мс.

    Скриншоты



    Залил: avproh
    Размер: 745.45 MB (781665426 Bytes)
    загрузка...
    Рейтинг →
     (голосов: 1, оценка 4/5, голосовать можно 1 раз )

    Другие торренты по теме:

  • Ромео и Юлия / Romeo i Julcia (1933) TVRip
  • Ромео и Джульетта / Romeo and Juliet (1968) BDRip от HQ-ViDEO
  • Ромео и Джульетта / Romeo and Juliet (1968) BDRip от HQCLUB
  • Ромео и Джульетта / Romeo and Juliet: A Love Song (2013) DVD5 от Youtracker | Sub | сжатый
  • Ромео и Джульетта / Romeo and Juliet: A Love Song (2013) DVDRip-AVC от Youtracker | Sub | лицензия
  • Ромео и Джульетта / Romeo and Juliet: A Love Song (2013) DVD9 R5 от Youtracker | Sub | лицензия
  • Ромео и Джульетта в снегу / Romeo und Julia im Schnee (1920) TVRip | Sub
  • Ромео и Джульетта / Romeo and Juliet (2013) WEB-DLRip | iTunes скачать через торрент бесплатно


    • Комментарии (0):

      Информация

      Информация

        Посетители, находящиеся в группе Гости, не могут оставлять комментарии в данной новости.

        ↓ Меню



        ↓ Опрос

        А Вы добавили сайт в закладки?
        Да
        Не


        Top 10 за месяц (Фильмы)